Showing posts with label Sunset. Show all posts
Showing posts with label Sunset. Show all posts

Sunset Samsung NX Mini EV-NXF1 Picture Wizard Vivid

 

 

 

Sunset Samsung NX Mini EV-NXF1 Picture Wizard Vivid 1920x1080P 25P Camera Samsung NX Mini Samsung EV-NXF1 Lens :Samsung 9mm f3.5 Wide Prime Lens NX Mini SteadyShot NO 24mm @ 35mm mode M manual focus to infinity shutter 1/200 9mm f/3.5 24mm @ 35mm Don’t forget to click the bell to turn on post notifications! Nikolaos Instagram: https://www.instagram.com/sakellarisnikolaos/ Twitter: https://twitter.com/SakellarisNiko Facebook: https://www.facebook.com/nikolaos.sakellaris/ Blog: https://video-photo-blog.blogspot.com/ Complete name : SAMSUNG\NX mini\100PHOTO\SAM_4758.MP4 Format : MPEG-4 Format profile : Base Media / Version 2 Codec ID : mp42 (mp42/avc1) File size : 104 MiB Duration : 1 min 6 s Overall bit rate : 13.2 Mb/s Encoded date : UTC 2020-04-07 19:20:04 @sec : UNG Video ID : 1 Format : AVC Format/Info : Advanced Video Codec Format profile : High@L4 Format settings : CABAC / 2 Ref Frames Format settings, CABAC : Yes Format settings, RefFrames : 2 frames Format settings, GOP : M=3, N=12 Codec ID : avc1 Codec ID/Info : Advanced Video Coding Duration : 1 min 6 s Bit rate : 13.1 Mb/s Width : 1 920 pixels Height : 1 080 pixels Display aspect ratio : 16:9 Frame rate mode : Constant Frame rate : 25.000 FPS Color space : YUV Chroma subsampling : 4:2:0 Bit depth : 8 bits Scan type : Progressive Bits/(Pixel*Frame) : 0.252 Stream size : 103 MiB (99%) Codec configuration box : avcC Audio ID : 2 Format : AAC LC Format/Info : Advanced Audio Codec Low Complexity Codec ID : mp4a-40-2 Duration : 1 min 5 s Bit rate mode : Constant Bit rate : 128 kb/s Channel(s) : 1 channel Channel layout : C Sampling rate : 44.1 kHz Frame rate : 43.066 FPS (1024 SPF) Compression mode : Lossy Stream size : 1 012 KiB (1%)

Sunset Samsung NX Mini EV-NXF1 Picture Wizard Landspape


Sunset Samsung NX Mini EV-NXF1 Picture Wizard Landspape



Sunset  Samsung NX Mini EV-NXF1
 Picture Wizard Landspape
1920x1080P 25P
Camera Samsung NX Mini Samsung EV-NXF1
Lens :Samsung 9mm f3.5 Wide Prime Lens NX Mini
SteadyShot  NO    24mm @ 35mm
mode M manual focus to infinity shutter 1/100 9mm f/3.5 24mm @ 35mm

Don’t forget to click the bell to turn on post notifications!

Nikolaos Instagram: https://www.instagram.com/sakellarisnikolaos/
Twitter: https://twitter.com/SakellarisNiko
Facebook: https://www.facebook.com/nikolaos.sakellaris/
Blog: https://video-photo-blog.blogspot.com/

Complete name : SAMSUNG\NX mini\100PHOTO\SAM_4750.MP4
Format : MPEG-4
Format profile : Base Media / Version 2
Codec ID : mp42 (mp42/avc1)
File size : 111 MiB
Duration : 1 min 6 s
Overall bit rate : 14.1 Mb/s
Encoded date : UTC 2020-04-07 19:15:40
@sec : UNG

Video
ID : 1
Format : AVC
Format/Info : Advanced Video Codec
Format profile : High@L4
Format settings : CABAC / 2 Ref Frames
Format settings, CABAC : Yes
Format settings, RefFrames : 2 frames
Format settings, GOP : M=3, N=12
Codec ID : avc1
Codec ID/Info : Advanced Video Coding
Duration : 1 min 6 s
Bit rate : 13.9 Mb/s
Width : 1 920 pixels
Height : 1 080 pixels
Display aspect ratio : 16:9
Frame rate mode : Constant
Frame rate : 25.000 FPS
Color space : YUV
Chroma subsampling : 4:2:0
Bit depth : 8 bits
Scan type : Progressive
Bits/(Pixel*Frame) : 0.268
Stream size : 109 MiB (99%)
Codec configuration box : avcC

Audio
ID : 2
Format : AAC LC
Format/Info : Advanced Audio Codec Low Complexity
Codec ID : mp4a-40-2
Duration : 1 min 5 s
Bit rate mode : Constant
Bit rate : 128 kb/s
Channel(s) : 1 channel
Channel layout : C
Sampling rate : 44.1 kHz
Frame rate : 43.066 FPS (1024 SPF)
Compression mode : Lossy
Stream size : 1 010 KiB (1%)





Sunset Samsung NX Mini EV-NXF1 picture wizard Custom3 A 0 +4 -4


Sunset Samsung NX Mini EV-NXF1 picture wizard Custom3 A 0 +4 -4



Sunset  Samsung NX Mini EV-NXF1
 Picture Wizard Custom3
Color A Saturation 0 Sharpness +4 Contrast -4
1920x1080P 25P
Camera Samsung NX Mini Samsung EV-NXF1
Lens :Samsung 9mm f3.5 Wide Prime Lens NX Mini
SteadyShot  NO    24mm @ 35mm
mode M manual focus to infinity shutter 1/100 9mm f/3.5 24mm @ 35mm

Don’t forget to click the bell to turn on post notifications!

Nikolaos Instagram: https://www.instagram.com/sakellarisnikolaos/
Twitter: https://twitter.com/SakellarisNiko
Facebook: https://www.facebook.com/nikolaos.sakellaris/
Blog: https://video-photo-blog.blogspot.com/

Complete name : SAMSUNG\NX mini\100PHOTO\SAM_4749.MP4 
Format : MPEG-4 
Format profile : Base Media / Version 2 
Codec ID : mp42 (mp42/avc1) 
File size : 105 MiB 
Duration : 1 min 5 s 
Overall bit rate : 13.4 Mb/s 
Encoded date : UTC 2020-04-07 19:14:06 
@sec : UNG 

Video 
ID : 1 
Format : AVC 
Format/Info : Advanced Video Codec 
Format profile : High@L4 
Format settings : CABAC / 2 Ref Frames 
Format settings, CABAC : Yes 
Format settings, RefFrames : 2 frames 
Format settings, GOP : M=3, N=12 
Codec ID : avc1 
Codec ID/Info : Advanced Video Coding 
Duration : 1 min 5 s 
Bit rate : 13.2 Mb/s 
Width : 1 920 pixels 
Height : 1 080 pixels 
Display aspect ratio : 16:9 
Frame rate mode : Constant 
Frame rate : 25.000 FPS 
Color space : YUV 
Chroma subsampling : 4:2:0 
Bit depth : 8 bits 
Scan type : Progressive 
Bits/(Pixel*Frame) : 0.255 
Stream size : 103 MiB (99%) 
Codec configuration box : avcC 

Audio 
ID : 2 
Format : AAC LC 
Format/Info : Advanced Audio Codec Low Complexity 
Codec ID : mp4a-40-2 
Duration : 1 min 5 s 
Bit rate mode : Constant 
Bit rate : 128 kb/s 
Channel(s) : 1 channel 
Channel layout : C 
Sampling rate : 44.1 kHz 
Frame rate : 43.066 FPS (1024 SPF) 
Compression mode : Lossy 
Stream size : 1 008 KiB (1%)









After sunset Sony NEX-5N with KONICA HEXANON AR 50mm F1.8 AR to NEX Creative Style Sunset



Creative Style  Crtv-S Sunset 
Filming Location: Larissa , Greece.
Camera : Sony NEX 5N 16.1 Mp 
Crop factor 1.5
Lens : KONICA HEXANON AR 50mm F1,8 @1.8
Mode : M  ISO 100 EV 0,0  (1/50) creative style Sunset  0 0 0
Video Stabilization OFF Video 1920x1080 @ 50fps
AR adapted to NEX 

Don’t forget to Subscribe and  click the bell to turn on post notifications!

Nikolaos Instagram: https://www.instagram.com/sakellarisnikolaos/
Twitter: https://twitter.com/SakellarisNiko
Facebook: https://www.facebook.com/nikolaos.sakellaris/
Blog: https://video-photo-blog.blogspot.com/

Complete name : AVCHD\BDMV\STREAM\00013.MTS 
Format : BDAV 
Format/Info : Blu-ray Video 
File size : 290 MiB 
Duration : 1 min 31 s 
Overall bit rate mode : Variable 
Overall bit rate : 26.5 Mb/s 
Maximum Overall bit rate : 28.0 Mb/s 
Recorded date : 2020-03-16 19:39:19+02:00 
Writing application : Sony NEX-5N 

Video 
ID : 4113 (0x1011) 
Menu ID : 1 (0x1) 
Format : AVC 
Format/Info : Advanced Video Codec 
Format profile : High@L4.2 
Format settings : CABAC / 2 Ref Frames 
Format settings, CABAC : Yes 
Format settings, Reference frames : 2 frames 
Format settings, GOP : M=1, N=12 
Codec ID : 27 
Duration : 1 min 31 s 
Bit rate mode : Variable 
Bit rate : 25.2 Mb/s 
Maximum bit rate : 26.0 Mb/s 
Width : 1 920 pixels 
Height : 1 080 pixels 
Display aspect ratio : 16:9 
Frame rate : 50.000 FPS 
Color space : YUV 
Chroma subsampling : 4:2:0 
Bit depth : 8 bits 
Scan type : Progressive 
Bits/(Pixel*Frame) : 0.243 
Stream size : 275 MiB (95%) 
IrisFNumber : 0.000000 

Audio 
ID : 4352 (0x1100) 
Menu ID : 1 (0x1) 
Format : AC-3 
Format/Info : Audio Coding 3 
Commercial name : Dolby Digital 
Codec ID : 129 
Duration : 1 min 31 s 
Bit rate mode : Constant 
Bit rate : 256 kb/s 
Channel(s) : 2 channels 
Channel layout : L R 
Sampling rate : 48.0 kHz 
Frame rate : 31.250 FPS (1536 SPF) 
Compression mode : Lossy 
Stream size : 2.80 MiB (1%) 
Service kind : Complete Main 

Text 
ID : 4608 (0x1200) 
Menu ID : 1 (0x1) 
Format : PGS 
Codec ID : 144 
Duration : 1 min 31 s

Creative Style Sunset Sony NEX-5R with OLYMPUS OM-SYSTEM ZUIKO MC AUTO-S 1:1,8 F=50mm OM to NEX




Creative Style  Crtv-S Sunset 
Filming Location: Larissa , Greece.
Camera : Sony NEX 5R 16.1 Mp 
Crop factor 1.5
Lens : OLYMPUS OM-SYSTEM ZUIKO MC AUTO-S 1:1.8 F=50mm @1.8
Mode : A  ISO 100 EV 0,0  (1/800 -1/4000) creative style Sunset  0 0 0
Video Stabilization OFF Video 1920x1080 @ 50fps
OM adapted to NEX 

Don’t forget to Subscribe and  click the bell to turn on post notifications!

Nikolaos Instagram: https://www.instagram.com/sakellarisnikolaos/
Twitter: https://twitter.com/SakellarisNiko
Facebook: https://www.facebook.com/nikolaos.sakellaris/
Blog: https://video-photo-blog.blogspot.com/
 
Complete name : AVCHD\BDMV\STREAM\00104.MTS 
Format : BDAV 
Format/Info : Blu-ray Video 
File size : 211 MiB 
Duration : 1 min 6 s 
Overall bit rate mode : Variable 
Overall bit rate : 26.5 Mb/s 
Maximum Overall bit rate : 28.0 Mb/s 
Recorded date : 2020-03-06 18:11:19+02:00 
Writing application : Sony NEX-5R 

Video 
ID : 4113 (0x1011) 
Menu ID : 1 (0x1) 
Format : AVC 
Format/Info : Advanced Video Codec 
Format profile : High@L4.2 
Format settings : CABAC / 2 Ref Frames 
Format settings, CABAC : Yes 
Format settings, Reference frames : 2 frames 
Format settings, GOP : M=1, N=12 
Codec ID : 27 
Duration : 1 min 6 s 
Bit rate mode : Variable 
Bit rate : 25.2 Mb/s 
Maximum bit rate : 26.0 Mb/s 
Width : 1 920 pixels 
Height : 1 080 pixels 
Display aspect ratio : 16:9 
Frame rate : 50.000 FPS 
Color space : YUV 
Chroma subsampling : 4:2:0 
Bit depth : 8 bits 
Scan type : Progressive 
Bits/(Pixel*Frame) : 0.243 
Stream size : 200 MiB (95%) 
IrisFNumber : 0.000000 

Audio 
ID : 4352 (0x1100) 
Menu ID : 1 (0x1) 
Format : AC-3 
Format/Info : Audio Coding 3 
Commercial name : Dolby Digital 
Codec ID : 129 
Duration : 1 min 6 s 
Bit rate mode : Constant 
Bit rate : 256 kb/s 
Channel(s) : 2 channels 
Channel layout : L R 
Sampling rate : 48.0 kHz 
Frame rate : 31.250 FPS (1536 SPF) 
Compression mode : Lossy 
Stream size : 2.04 MiB (1%) 
Service kind : Complete Main 

Text 
ID : 4608 (0x1200) 
Menu ID : 1 (0x1) 
Format : PGS 
Codec ID : 144 
Duration : 1 min 6 s

Golden clouds in a sky at sunset - Sony NEX 5R with Sony E 18-55 OSS iso 100 @ 18mm f/8 50p




Golden clouds in a sky at sunset over the city of Larissa Camera : Sony NEX 5R in mode M auto iso 100 1/100 stabilazer IS ON focus to the clouds Lens: Sony E 3.5-5.6 / 18-55 OSS Ø49 @ 18mm f/8 video test 1920 1080 50p Don’t forget to click the bell to turn on post notifications! Nikolaos Instagram: https://www.instagram.com/sakellarisnikolaos/ Twitter: https://twitter.com/SakellarisNiko Facebook: https://www.facebook.com/nikolaos.sakellaris/ Blog: https://video-photo-blog.blogspot.com/ Sony NEX 5R Sony E 3.5-5.6 / 18-55 Dramatic and picturesque evening scene. Complete name : AVCHD\BDMV\STREAM\00030.MTS Format : BDAV Format/Info : Blu-ray Video File size : 209 MiB Duration : 1 min 6 s Overall bit rate mode : Variable Overall bit rate : 26.5 Mb/s Maximum Overall bit rate : 28.0 Mb/s Recorded date : 2020-02-22 19:10:39+02:00 Writing application : Sony NEX-5R Video ID : 4113 (0x1011) Menu ID : 1 (0x1) Format : AVC Format/Info : Advanced Video Codec Format profile : High@L4.2 Format settings : CABAC / 2 Ref Frames Format settings, CABAC : Yes Format settings, Reference frames : 2 frames Format settings, GOP : M=1, N=12 Codec ID : 27 Duration : 1 min 6 s Bit rate mode : Variable Bit rate : 25.1 Mb/s Maximum bit rate : 26.0 Mb/s Width : 1 920 pixels Height : 1 080 pixels Display aspect ratio : 16:9 Frame rate : 50.000 FPS Color space : YUV Chroma subsampling : 4:2:0 Bit depth : 8 bits Scan type : Progressive Bits/(Pixel*Frame) : 0.243 Stream size : 199 MiB (95%) IrisFNumber : 8.000000 Audio ID : 4352 (0x1100) Menu ID : 1 (0x1) Format : AC-3 Format/Info : Audio Coding 3 Commercial name : Dolby Digital Codec ID : 129 Duration : 1 min 6 s Bit rate mode : Constant Bit rate : 256 kb/s Channel(s) : 2 channels Channel layout : L R Sampling rate : 48.0 kHz Frame rate : 31.250 FPS (1536 SPF) Compression mode : Lossy Stream size : 2.02 MiB (1%) Service kind : Complete Main Text ID : 4608 (0x1200) Menu ID : 1 (0x1) Format : PGS Codec ID : 144 Duration : 1 min 5 s

Sunset Full of Clouds - Sony NEX 5R with Sony E 18-55 OSS iso 100 @ 55mm f/8




Sunset Full of Clouds Larissa Greece Camera : Sony NEX 5R in mode M auto iso 100 1/100 stabilazer IS ON focus to the clouds Lens: Sony E 3.5-5.6 / 18-55 OSS Ø49 @ 55mm f/8 video test 1920 1080 50p Don’t forget to click the bell to turn on post notifications! Nikolaos Instagram: https://www.instagram.com/sakellarisnikolaos/ Twitter: https://twitter.com/SakellarisNiko Facebook: https://www.facebook.com/nikolaos.sakellaris/ Blog: https://video-photo-blog.blogspot.com/ Sony NEX 5R Sony E 3.5-5.6 / 18-55 Complete name : AVCHD\BDMV\STREAM\00028.MTS Format : BDAV Format/Info : Blu-ray Video File size : 261 MiB Duration : 1 min 22 s Overall bit rate mode : Variable Overall bit rate : 26.5 Mb/s Maximum Overall bit rate : 28.0 Mb/s Recorded date : 2020-02-22 19:03:33+02:00 Writing application : Sony NEX-5R Video ID : 4113 (0x1011) Menu ID : 1 (0x1) Format : AVC Format/Info : Advanced Video Codec Format profile : High@L4.2 Format settings : CABAC / 2 Ref Frames Format settings, CABAC : Yes Format settings, Reference frames : 2 frames Format settings, GOP : M=1, N=12 Codec ID : 27 Duration : 1 min 22 s Bit rate mode : Variable Bit rate : 25.2 Mb/s Maximum bit rate : 26.0 Mb/s Width : 1 920 pixels Height : 1 080 pixels Display aspect ratio : 16:9 Frame rate : 50.000 FPS Color space : YUV Chroma subsampling : 4:2:0 Bit depth : 8 bits Scan type : Progressive Bits/(Pixel*Frame) : 0.243 Stream size : 248 MiB (95%) IrisFNumber : 8.000000 Audio ID : 4352 (0x1100) Menu ID : 1 (0x1) Format : AC-3 Format/Info : Audio Coding 3 Commercial name : Dolby Digital Codec ID : 129 Duration : 1 min 22 s Bit rate mode : Constant Bit rate : 256 kb/s Channel(s) : 2 channels Channel layout : L R Sampling rate : 48.0 kHz Frame rate : 31.250 FPS (1536 SPF) Compression mode : Lossy Stream size : 2.52 MiB (1%) Service kind : Complete Main Text ID : 4608 (0x1200) Menu ID : 1 (0x1) Format : PGS Codec ID : 144 Duration : 1 min 22 s

Beautiful Sunset Full of Clouds - Sony NEX 5R with Sony E 18-55 OSS iso 100 @ 18mm f/8 50p





Shades of blue, red and yellow flooded the sky at dusk on Tuesday, February 18. The phenomenon of this colorful cloud formation is considered rare and is called "Fallstreak Hole". Αποχρώσεις του μπλε, του κόκκινου και του κίτρινου «πλημμύρισαν» τον ουρανό, το σούρουπο της Τρίτης 18 Φεβρουαρίου. Το φαινόμενο αυτού του σχηματισμού πολύχρωμων νεφών θεωρείται σπάνιο και ονομάζεται «Fallstreak Hole». Beautiful Sunset Full of Clouds Camera : Sony NEX 5R in mode M auto iso 100 1/100 stabilazer IS ON focus to the clouds Lens: Sony E 3.5-5.6 / 18-55 OSS Ø49 @ 18mm f/8 video test 1920 1080 50p Don’t forget to click the bell to turn on post notifications! Nikolaos Instagram: https://www.instagram.com/sakellarisnikolaos/ Twitter: https://twitter.com/SakellarisNiko Facebook: https://www.facebook.com/nikolaos.sakellaris/ Blog: https://video-photo-blog.blogspot.com/ Sony NEX 5R Sony E 3.5-5.6 / 18-55 Complete name : AVCHD\BDMV\STREAM\00027.MTS Format : BDAV Format/Info : Blu-ray Video File size : 401 MiB Duration : 2 min 6 s Overall bit rate mode : Variable Overall bit rate : 26.5 Mb/s Maximum Overall bit rate : 28.0 Mb/s Recorded date : 2020-02-22 19:00:44+02:00 Writing application : Sony NEX-5R Video ID : 4113 (0x1011) Menu ID : 1 (0x1) Format : AVC Format/Info : Advanced Video Codec Format profile : High@L4.2 Format settings : CABAC / 2 Ref Frames Format settings, CABAC : Yes Format settings, Reference frames : 2 frames Format settings, GOP : M=1, N=12 Codec ID : 27 Duration : 2 min 6 s Bit rate mode : Variable Bit rate : 25.2 Mb/s Maximum bit rate : 26.0 Mb/s Width : 1 920 pixels Height : 1 080 pixels Display aspect ratio : 16:9 Frame rate : 50.000 FPS Color space : YUV Chroma subsampling : 4:2:0 Bit depth : 8 bits Scan type : Progressive Bits/(Pixel*Frame) : 0.243 Stream size : 381 MiB (95%) IrisFNumber : 8.000000 Audio ID : 4352 (0x1100) Menu ID : 1 (0x1) Format : AC-3 Format/Info : Audio Coding 3 Commercial name : Dolby Digital Codec ID : 129 Duration : 2 min 6 s Bit rate mode : Constant Bit rate : 256 kb/s Channel(s) : 2 channels Channel layout : L R Sampling rate : 48.0 kHz Frame rate : 31.250 FPS (1536 SPF) Compression mode : Lossy Stream size : 3.87 MiB (1%) Service kind : Complete Main Text ID : 4608 (0x1200) Menu ID : 1 (0x1) Format : PGS Codec ID : 144 Duration : 2 min 6 s

After sunset Sony NEX 5R with Sony E 3.5-5.6 / 18-55 OSS Ø49 iso 800



After sunset Sunset birds Camera : Sony NEX 5R in mode M auto iso 800 1/25 stabilazer IS ON focus to the clouds Lens: Sony E 3.5-5.6 / 18-55 OSS Ø49 @ 18mm f/3.5 video test 1920 1080 50p Don’t forget to click the bell to turn on post notifications! Nikolaos Instagram: https://www.instagram.com/sakellarisnikolaos/ Twitter: https://twitter.com/SakellarisNiko Facebook: https://www.facebook.com/nikolaos.sakellaris/ Blog: https://video-photo-blog.blogspot.com/ Sony NEX 5R Sony E 3.5-5.6 / 18-55 Complete name : AVCHD\BDMV\STREAM\00024.MTS Format : BDAV Format/Info : Blu-ray Video File size : 290 MiB Duration : 1 min 31 s Overall bit rate mode : Variable Overall bit rate : 26.5 Mb/s Maximum Overall bit rate : 28.0 Mb/s Recorded date : 2020-02-18 19:45:29+02:00 Writing application : Sony NEX-5R Video ID : 4113 (0x1011) Menu ID : 1 (0x1) Format : AVC Format/Info : Advanced Video Codec Format profile : High@L4.2 Format settings : CABAC / 2 Ref Frames Format settings, CABAC : Yes Format settings, Reference frames : 2 frames Format settings, GOP : M=1, N=12 Codec ID : 27 Duration : 1 min 31 s Bit rate mode : Variable Bit rate : 25.2 Mb/s Maximum bit rate : 26.0 Mb/s Width : 1 920 pixels Height : 1 080 pixels Display aspect ratio : 16:9 Frame rate : 50.000 FPS Color space : YUV Chroma subsampling : 4:2:0 Bit depth : 8 bits Scan type : Progressive Bits/(Pixel*Frame) : 0.243 Stream size : 276 MiB (95%) IrisFNumber : 3.500000 Audio ID : 4352 (0x1100) Menu ID : 1 (0x1) Format : AC-3 Format/Info : Audio Coding 3 Commercial name : Dolby Digital Codec ID : 129 Duration : 1 min 31 s Bit rate mode : Constant Bit rate : 256 kb/s Channel(s) : 2 channels Channel layout : L R Sampling rate : 48.0 kHz Frame rate : 31.250 FPS (1536 SPF) Compression mode : Lossy Stream size : 2.80 MiB (1%) Service kind : Complete Main Text ID : 4608 (0x1200) Menu ID : 1 (0x1) Format : PGS Codec ID : 144 Duration : 1 min 31 s

Sunset Birds : Xiaomi Yi M1 with Canon FL 50mm f/1.4 FD adapted to M4/3 UHD 4k test footage




Sunset Birds Larissa Greece Camera : Xiaomi Yi M1 http://bit.ly/33QoqBP mirrorless Sony IMX269 Lens : Canon FL 50mm f/1.4 @ f/1,7 http://bit.ly/2NVlFJP Mode : S 1/100 ISO 200 EV 0,0 Video Stabilization OFF Video 3840x2160 @ 30fps Don’t forget to click the bell to turn on post notifications! Nikolaos Instagram: https://www.instagram.com/sakellarisnikolaos/ Twitter: https://twitter.com/SakellarisNiko Facebook: https://www.facebook.com/nikolaos.sakellaris/ Blog: https://video-photo-blog.blogspot.com/ FD adapted MFT Yi M1 FD adapted video test footage FD adapted M4/3

Sunset : Samsung NX Mini with Samsung 9mm f3.5 Wide Prime Lens 1080P 25P





Sunset 28 JAN 2020 1920 1080P 25P Camera Samsung NX Mini SteadyShot NO mode MF Manual Shoting ISO 400 9mm f/3.5 24mm @ 35mm Lens :Samsung 9mm f3.5 Wide Prime Lens NX Mini Don’t forget to click the bell to turn on post notifications! Nikolaos Instagram: https://www.instagram.com/sakellarisnikolaos/ Twitter: https://twitter.com/SakellarisNiko Facebook: https://www.facebook.com/nikolaos.sakellaris/ Blog: https://video-photo-blog.blogspot.com/ Complete name : DCIM\100PHOTO\SAM_0064.MP4 Format : MPEG-4 Format profile : Base Media / Version 2 Codec ID : mp42 (mp42/avc1) File size : 139 MiB Duration : 1 min 22 s Overall bit rate : 14.1 Mb/s Encoded date : UTC 2020-01-28 18:09:32 @sec : UNG Video ID : 1 Format : AVC Format/Info : Advanced Video Codec Format profile : High@L4 Format settings : CABAC / 2 Ref Frames Format settings, CABAC : Yes Format settings, Reference frames : 2 frames Format settings, GOP : M=3, N=12 Codec ID : avc1 Codec ID/Info : Advanced Video Coding Duration : 1 min 22 s Bit rate : 13.9 Mb/s Width : 1 920 pixels Height : 1 080 pixels Display aspect ratio : 16:9 Frame rate mode : Constant Frame rate : 25.000 FPS Color space : YUV Chroma subsampling : 4:2:0 Bit depth : 8 bits Scan type : Progressive Bits/(Pixel*Frame) : 0.269 Stream size : 137 MiB (99%) Codec configuration box : avcC Audio ID : 2 Format : AAC LC Format/Info : Advanced Audio Codec Low Complexity Codec ID : mp4a-40-2 Duration : 1 min 22 s Bit rate mode : Constant Bit rate : 128 kb/s Channel(s) : 1 channel Channel layout : C Sampling rate : 44.1 kHz Frame rate : 43.066 FPS (1024 SPF) Compression mode : Lossy Stream size : 1.24 MiB (1%)

Sunset birds Olympus PEN E-PL3 with Helios-44M-7 58mm f/2 Ø52 M42 to m4/3 @ f/4




Sunset birds Camera : Olympus PEN E-PL3 in mode A auto iso 400-800 limit stabilazer IS off is defective one motor focus to the clouds Lens: Helios-44M-7 58mm f/2 Ø52 M42 - @ f/4 video test 1920 1080 30p Don’t forget to click the bell to turn on post notifications! Nikolaos Instagram: https://www.instagram.com/sakellarisnikolaos/ Twitter: https://twitter.com/SakellarisNiko Facebook: https://www.facebook.com/nikolaos.sakellaris/ Blog: https://video-photo-blog.blogspot.com/ 1:2 f= 58mm with monopod K&F Concept from KF2624L tripod KF09.050 (1st time used) Complete name : AVCHD\BDMV\STREAM\00007.MTS Format : BDAV Format/Info : Blu-ray Video File size : 93.7 MiB Duration : 1 min 21 s Overall bit rate mode : Variable Overall bit rate : 9 618 kb/s Maximum Overall bit rate : 24.0 Mb/s Video ID : 4113 (0x1011) Menu ID : 1 (0x1) Format : AVC Format/Info : Advanced Video Codec Format profile : High@L4 Format settings : 2 Ref Frames Format settings, CABAC : No Format settings, Reference frames : 2 frames Format settings, GOP : M=1, N=15 Codec ID : 27 Duration : 1 min 21 s Bit rate mode : Variable Bit rate : 9 036 kb/s Maximum bit rate : 22.5 Mb/s Width : 1 920 pixels Height : 1 080 pixels Display aspect ratio : 16:9 Frame rate : 29.970 (30000/1001) FPS Color space : YUV Chroma subsampling : 4:2:0 Bit depth : 8 bits Scan type : Interlaced Scan type, store method : Separated fields Scan order : Top Field First Bits/(Pixel*Frame) : 0.145 Stream size : 87.9 MiB (94%) Audio ID : 4352 (0x1100) Menu ID : 1 (0x1) Format : AC-3 Format/Info : Audio Coding 3 Commercial name : Dolby Digital Codec ID : 129 Duration : 1 min 21 s Bit rate mode : Constant Bit rate : 192 kb/s Channel(s) : 2 channels Channel layout : L R Sampling rate : 48.0 kHz Frame rate : 31.250 FPS (1536 SPF) Compression mode : Lossy Stream size : 1.87 MiB (2%) Service kind : Complete Main

Sunset Clouds Canon 250D video test with Helios-44-2 2/58 M42 adapted to EOS 4K @ 25fps sl3




Sunset Clouds Camera : Canon EOS 250d 4K 25p crop 2.6 @ 4K Lens : Helios-44-2 58mm f/2 Ø52 M42 @ f/2 130mm equivalent 35mm Mode A Iso 800 50mm 4k cropped 2.6x video stabilisation OFF canon sl3 adapted Complete name : Desktop\104PHOTO\MVI_7785.MP4 Format : MPEG-4 Format profile : Base Media / Version 2 Codec ID : mp42 (mp42/avc1/CAEP) File size : 929 MiB Duration : 1 min 5 s Overall bit rate : 119 Mb/s Video ID : 1 Format : AVC Format/Info : Advanced Video Codec Format profile : High@L5.1 Format settings : 2 Ref Frames Format settings, CABAC : No Format settings, RefFrames : 2 frames Format settings, GOP : M=3, N=12 Codec ID : avc1 Codec ID/Info : Advanced Video Coding Duration : 1 min 5 s Bit rate : 119 Mb/s Width : 3 840 pixels Height : 2 160 pixels Display aspect ratio : 16:9 Frame rate mode : Constant Frame rate : 25.000 FPS Color space : YUV Chroma subsampling : 4:2:0 Bit depth : 8 bits Scan type : Progressive Bits/(Pixel*Frame) : 0.573 Stream size : 927 MiB (100%) Language : English Color range : Full Color primaries : BT.709 Transfer characteristics : BT.709 Matrix coefficients : BT.709 Codec configuration box : avcC Audio ID : 2 Format : AAC LC Format/Info : Advanced Audio Codec Low Complexity Codec ID : mp4a-40-2 Duration : 1 min 5 s Bit rate mode : Constant Bit rate : 256 kb/s Channel(s) : 2 channels Channel layout : L R Sampling rate : 48.0 kHz Frame rate : 46.875 FPS (1024 SPF) Compression mode : Lossy Stream size : 1.98 MiB (0%) Language : English

Sunset Clouds Canon 250D video test with ARSAT H 50mm 1:2 Nikon AI adapted to EOS 4K @ 25fps sl3




Sunset Clouds Camera : Canon EOS 250d 4K 25p crop 2.6 @ 4K Lens : ARSAT H 50mm f/2 Ø52 Nikon AI @ f/2 130mm equivalent 35mm Mode A Iso 800 50mm 4k cropped 2.6x video stabilisation OFF canon sl3 adapted Complete name : Desktop\104PHOTO\MVI_7771.MP4 Format : MPEG-4 Format profile : Base Media / Version 2 Codec ID : mp42 (mp42/avc1/CAEP) File size : 924 MiB Duration : 1 min 5 s Overall bit rate : 119 Mb/s Video ID : 1 Format : AVC Format/Info : Advanced Video Codec Format profile : High@L5.1 Format settings : 2 Ref Frames Format settings, CABAC : No Format settings, RefFrames : 2 frames Format settings, GOP : M=3, N=12 Codec ID : avc1 Codec ID/Info : Advanced Video Coding Duration : 1 min 5 s Bit rate : 119 Mb/s Width : 3 840 pixels Height : 2 160 pixels Display aspect ratio : 16:9 Frame rate mode : Constant Frame rate : 25.000 FPS Color space : YUV Chroma subsampling : 4:2:0 Bit depth : 8 bits Scan type : Progressive Bits/(Pixel*Frame) : 0.573 Stream size : 922 MiB (100%) Language : English Color range : Full Color primaries : BT.709 Transfer characteristics : BT.709 Matrix coefficients : BT.709 Codec configuration box : avcC Audio ID : 2 Format : AAC LC Format/Info : Advanced Audio Codec Low Complexity Codec ID : mp4a-40-2 Duration : 1 min 5 s Bit rate mode : Constant Bit rate : 256 kb/s Channel(s) : 2 channels Channel layout : L R Sampling rate : 48.0 kHz Frame rate : 46.875 FPS (1024 SPF) Compression mode : Lossy Stream size : 1.97 MiB (0%) Language : English

Sunset Clouds star : Samsung NX20 video test with Helios-44-2 2/58 M42 adapted to NX @ 24fps




Sunset Clouds Larissa Greece Camera : Samsung NX20 Crop factor 1.5 Lens : Helios-44-2 58mm f/2 Ø52 M42 @ f/2 75mm equivalent 35mm Mode : A ISO 400 EV 0,0 Video Stabilization No Video 1920x810 @ 24fps Complete name : Desktop\104PHOTO\SAM_4395.MP4 Format : MPEG-4 Format profile : Base Media / Version 2 Codec ID : mp42 (mp42/isom/avc1) File size : 224 MiB Duration : 2 min 50 s Overall bit rate : 11.0 Mb/s Video ID : 1 Format : AVC Format/Info : Advanced Video Codec Format profile : High@L4.1 Format settings : 2 Ref Frames Format settings, CABAC : No Format settings, RefFrames : 2 frames Format settings, GOP : M=1, N=24 Codec ID : avc1 Codec ID/Info : Advanced Video Coding Duration : 2 min 50 s Bit rate : 10.9 Mb/s Width : 1 920 pixels Height : 810 pixels Display aspect ratio : 2.40:1 Frame rate mode : Constant Frame rate : 24.000 FPS Color space : YUV Chroma subsampling : 4:2:0 Bit depth : 8 bits Scan type : Progressive Bits/(Pixel*Frame) : 0.292 Stream size : 221 MiB (99%) Language : English Codec configuration box : avcC Audio ID : 2 Format : AAC LC Format/Info : Advanced Audio Codec Low Complexity Codec ID : mp4a-40-2 Duration : 2 min 50 s Bit rate mode : Constant Bit rate : 128 kb/s Channel(s) : 2 channels Channel layout : L R Sampling rate : 32.0 kHz Frame rate : 31.250 FPS (1024 SPF) Compression mode : Lossy Stream size : 2.58 MiB (1%) Language : English

B. Sunset Clouds : Pentax Q video test with ARSAT H 50mm 1:2 Nikon AI adapted to Pq 1080 @ 30fps




Sunset Clouds Larissa Greece Camera : Pentax Q 12.4 Mp 1/2.3-inch CMOS Crop factor 5.62 Lens : ARSAT H 50mm f/2 Ø52 Nikon AI @ f/2 326mm equivalent 35mm Mode : M ISO 125 EV 0,0 Shutter 1/50 Video Stabilization OFF Video 1920x1080 @ 30fps Complete name : Desktop\IMGP8634.MOV Format : MPEG-4 Format profile : QuickTime Codec ID : qt 2007.09 (qt /####) File size : 154 MiB Duration : 1 min 31 s Overall bit rate mode : Variable Overall bit rate : 14.1 Mb/s thmb : AX Video ID : 1 Format : AVC Format/Info : Advanced Video Codec Format profile : Main@L4 Format settings : CABAC / 2 Ref Frames Format settings, CABAC : Yes Format settings, RefFrames : 2 frames Codec ID : avc1 Codec ID/Info : Advanced Video Coding Duration : 1 min 31 s Source duration : 1 min 31 s Bit rate mode : Variable Bit rate : 12.5 Mb/s Maximum bit rate : 20.0 Mb/s Width : 1 920 pixels Height : 1 080 pixels Display aspect ratio : 16:9 Frame rate mode : Constant Frame rate : 29.970 (30000/1001) FPS Color space : YUV Chroma subsampling : 4:2:0 Bit depth : 8 bits Scan type : Progressive Bits/(Pixel*Frame) : 0.202 Stream size : 137 MiB (89%) Source stream size : 137 MiB (89%) Language : English mdhd_Duration : 91647 Codec configuration box : avcC Audio ID : 2 Format : PCM Format settings : Little / Signed Codec ID : sowt Duration : 1 min 31 s Bit rate mode : Constant Bit rate : 1 536 kb/s Channel(s) : 2 channels Channel layout : L R Sampling rate : 48.0 kHz Bit depth : 16 bits Stream size : 16.8 MiB (11%) Language : English mdhd_Duration : 91647

A. Christmass Sunset Clouds : Pentax Q video test with ARSAT H 50mm 1:2 Nikon AI to Pq 1080 @ 30fps




Christmass Sunset Clouds Larissa Greece Camera : Pentax Q 12.4 Mp 1/2.3-inch CMOS Crop factor 5.62 Lens : ARSAT H 50mm f/2 Ø52 Nikon AI @ f/2 326mm equivalent 35mm Helios 81H Mode : M ISO 125 EV 0,0 Shutter 1/50 Video Stabilization OFF Video 1920x1080 @ 30fps Complete name : Desktop\IMGP8633.MOV Format : MPEG-4 Format profile : QuickTime Codec ID : qt 2007.09 (qt /####) File size : 143 MiB Duration : 1 min 24 s Overall bit rate mode : Variable Overall bit rate : 14.1 Mb/s thmb : AX Video ID : 1 Format : AVC Format/Info : Advanced Video Codec Format profile : Main@L4 Format settings : CABAC / 2 Ref Frames Format settings, CABAC : Yes Format settings, RefFrames : 2 frames Codec ID : avc1 Codec ID/Info : Advanced Video Coding Duration : 1 min 24 s Source duration : 1 min 24 s Bit rate mode : Variable Bit rate : 12.5 Mb/s Maximum bit rate : 20.0 Mb/s Width : 1 920 pixels Height : 1 080 pixels Display aspect ratio : 16:9 Frame rate mode : Constant Frame rate : 29.970 (30000/1001) FPS Color space : YUV Chroma subsampling : 4:2:0 Bit depth : 8 bits Scan type : Progressive Bits/(Pixel*Frame) : 0.202 Stream size : 127 MiB (89%) Source stream size : 127 MiB (89%) Language : English mdhd_Duration : 84863 Codec configuration box : avcC Audio ID : 2 Format : PCM Format settings : Little / Signed Codec ID : sowt Duration : 1 min 24 s Bit rate mode : Constant Bit rate : 1 536 kb/s Channel(s) : 2 channels Channel layout : L R Sampling rate : 48.0 kHz Bit depth : 16 bits Stream size : 15.5 MiB (11%) Language : English mdhd_Duration : 84863

Sunset : Pentax Q video test with Jupiter-37A 135mm f3.5 M42 adapted to Pq 1080 30fps 758mm @ 35mm





Hard to handle by hand / Sunset Larissa Greece Camera : Pentax Q 12.4 Mp 1/2.3-inch CMOS Crop factor 5.62 Lens : Jupiter-37A 135mm f3.5 Ø52 M42 @ f/8 758mm equivalent 35mm Mode : M ISO 125 EV 0,0 Shutter 1/30 Video Stabilization OFF Video 1920x1080 @ 30fps Complete name : DCIM\125_2312\IMGP8617.MOV Format : MPEG-4 Format profile : QuickTime Codec ID : qt 2007.09 File size : 186 MiB Duration : 1 min 51 s Overall bit rate mode : Variable Overall bit rate : 14.1 Mb/s thmb : AX Video ID : 1 Format : AVC Format/Info : Advanced Video Codec Format profile : Main@L4 Format settings : CABAC / 2 Ref Frames Format settings, CABAC : Yes Format settings, Reference frames : 2 frames Codec ID : avc1 Codec ID/Info : Advanced Video Coding Duration : 1 min 51 s Source duration : 1 min 51 s Bit rate mode : Variable Bit rate : 12.5 Mb/s Maximum bit rate : 20.0 Mb/s Width : 1 920 pixels Height : 1 080 pixels Display aspect ratio : 16:9 Frame rate mode : Constant Frame rate : 29.970 (30000/1001) FPS Color space : YUV Chroma subsampling : 4:2:0 Bit depth : 8 bits Scan type : Progressive Bits/(Pixel*Frame) : 0.201 Stream size : 166 MiB (89%) Source stream size : 166 MiB (89%) Language : English mdhd_Duration : 111103 Codec configuration box : avcC Audio ID : 2 Format : PCM Format settings : Little / Signed Codec ID : sowt Duration : 1 min 51 s Bit rate mode : Constant Bit rate : 1 536 kb/s Channel(s) : 2 channels Channel layout : L R Sampling rate : 48.0 kHz Bit depth : 16 bits Stream size : 20.3 MiB (11%) Language : English mdhd_Duration : 111103

Ηλιοβασίλεμα στον Πλαταμώνα Sanset Platamonas ( Sanyo Xacti VPC-CG100 ) Video



16 August 2018
Ηλιοβασίλεμα  στον Πλαταμώνα
Sunset Platamonas Greece
  • Sanyo Xacti VPC-CG100
  • Video test
  • Video Stabilazer ΟΝ
  • Exposure A Aperture - f/3.5 - Shuter auto ( 1/30 ~ 1/1000 )
  • Focus Auto -ISO 50

Complete name : SANYO\SANYO CG100\LEMOON\SANY0091.MP4
Format : MPEG-4
Format profile : Base Media / Version 2
Codec ID : mp42 (mp42/avc1)
File size : 30.6 MiB
Duration : 19 s 19 ms
Overall bit rate mode : Variable
Overall bit rate : 13.5 Mb/s
Movie_More : SANYO DIGITAL CAMERA CG100
Encoded date : UTC 2018-08-16 20:42:11
Tagged date : UTC 2018-08-16 20:42:11
Origin : Digital Camera
TAGS : O DIGITAL CAMERA

Video
ID : 1
Format : AVC
Format/Info : Advanced Video Codec
Format profile : Baseline@L4
Format settings : 2 Ref Frames
Format settings, CABAC : No
Format settings, Reference frames : 2 frames
Format settings, GOP : M=1, N=30
Codec ID : avc1
Codec ID/Info : Advanced Video Coding
Duration  19 s 19 ms
Bit rate : 12.4 Mb/s:
Width : 1 920 pixels
Height : 1 080 pixels
Display aspect ratio : 16:9
Frame rate mode : Constant
Frame rate : 29.970 (30000/1001) FPS
Color space : YUV
Chroma subsampling : 4:2:0
Bit depth : 8 bits
Scan type : Progressive
Bits/(Pixel*Frame) : 0.200
Stream size : 28.2 MiB (92%)
Language : English
Encoded date : UTC 2018-08-16 20:42:11

Color range : Full
Color primaries : BT.709
Transfer characteristics : BT.709
Matrix coefficients : BT.709
Codec configuration box : avcC

Audio
ID : 2
Format : AAC LC
Format/Info : Advanced Audio Codec Low Complexity
Codec ID : mp4a-40-2
Duration : 19 s 19 ms
Source duration : 19 s 200 ms
Bit rate mode : Variable
Bit rate : 256 kb/s
Maximum bit rate : 192 kb/s
Channel(s) : 2 channels
Channel layout : L R
Sampling rate : 48.0 kHz
Frame rate : 46.875 FPS (1024 SPF)
Compression mode : Lossy
Stream size : 591 KiB (2%)
Source stream size : 597 KiB (2%)
Language : English
Encoded date : UTC 2018-08-16 20:42:11

Nei Pori Sunset Gopro Hero CHDHA-301 1080 25fps




Nei Pori Sunset July ,7 2019
  • Gopro Hero CHDHA-301
  •  1080 25fps

Complete name : GOPRO\CHDHA-301\Video\GOPR0560.MP4
Format : MPEG-4
Format profile : JVT
Codec ID : avc1 (avc1/isom)
File size : 102 MiB
Duration : 55 s 680 ms
Overall bit rate : 15.4 Mb/s
Encoded date : UTC 2019-07-06 21:00:18
Tagged date : UTC 2019-07-06 21:00:18
AMBA :

Video
ID : 1
Format : AVC
Format/Info : Advanced Video Codec
Format profile : Main@L4
Format settings : CABAC / 2 Ref Frames
Format settings, CABAC : Yes
Format settings, Reference frames : 2 frames
Format settings, GOP : M=3, N=15
Codec ID : avc1
Codec ID/Info : Advanced Video Coding
Duration : 55 s 680 ms
Bit rate mode : Constant
Bit rate : 14.6 Mb/s
Width : 1 920 pixels
Height : 1 080 pixels
Display aspect ratio : 16:9
Frame rate mode : Constant
Frame rate : 25.000 FPS
Color space : YUV
Chroma subsampling : 4:2:0
Bit depth : 8 bits
Scan type : Progressive
Bits/(Pixel*Frame) : 0.282
Stream size : 100 MiB (98%)
Title : Ambarella AVC
Language : English
Encoded date : UTC 2019-07-06 21:00:18
Tagged date : UTC 2019-07-06 21:00:18
Color range : Full
Codec configuration box : avcC

Audio
ID : 2
Format : AAC LC
Format/Info : Advanced Audio Codec Low Complexity
Codec ID : mp4a-40-2
Duration : 55 s 680 ms
Bit rate mode : Constant
Bit rate : 128 kb/s
Channel(s) : 2 channels
Channel layout : L R
Sampling rate : 48.0 kHz
Frame rate : 46.875 FPS (1024 SPF)
Compression mode : Lossy
Stream size : 870 KiB (1%)
Title : Ambarella AAC
Language : English
Encoded date : UTC 2019-07-06 21:00:18
Tagged date : UTC 2019-07-06 21:00:18

Other
ID : 3
Type : Time code
Format : QuickTime TC
Duration : 55 s 680 ms
Frame rate : 25.000 FPS
Time code of first frame : 21:00:17:00
Time code, striped : Yes
Language : English
Encoded date : UTC 2019-07-06 21:00:18

Popular Posts