Showing posts with label Canon EOS 1200D. Show all posts
Showing posts with label Canon EOS 1200D. Show all posts

Sunset Larissa Greece- Canon EOS 1200d + Canon Zoom Lens EF-S 18-55mm f/3.5-5.6 III FHD 1080 24fps




Sunset Larissa Greece
Camera : Canon EOS 1200d
Lens : Canon  Zoom Lens EF-S 18-55mm f/3.5-5.6 III
video test FHD 1080 24fps
Complete name DCIM\100CANON\MVI_7138.MOV
Format : MPEG-4
Format profile : QuickTime
Codec ID : qt 2007.09 (qt /CAEP)
File size : 127 MiB
Duration : 30 s 906 ms
Overall bit rate : 34.4 Mb/s
Encoded date : UTC 2019-03-03 18:32:31

Video
ID : 1
Format : AVC
Format/Info : Advanced Video Codec
Format profile : Baseline@L5
Format settings : 1 Ref Frames
Format settings, CABAC : No
Format settings, RefFrames : 1 frame
Format settings, GOP : M=1, N=12
Codec ID : avc1
Codec ID/Info : Advanced Video Coding
Duration : 30 s 906 ms
Bit rate : 32.9 Mb/s
Width : 1 920 pixels
Height : 1 080 pixels
Original height : 1 088 pixels
Display aspect ratio : 16:9
Original display aspect ratio : 16:9
Frame rate mode : Constant
Frame rate : 23.976 (24000/1001) FPS
Color space : YUV
Chroma subsampling : 4:2:0
Bit depth : 8 bits
Scan type : Progressive
Bits/(Pixel*Frame) : 0.661
Stream size : 121 MiB (95%)
Language : English
Encoded date : UTC 2019-03-03 18:32:31
Color range : Full
Color primaries : BT.709
Transfer characteristics : BT.709
Matrix coefficients : BT.601
Codec configuration box : avcC

Audio
ID : 2
Format : PCM
Format settings : Little / Signed
Codec ID : sowt
Duration : 30 s 906 ms
Bit rate mode : Constant
Bit rate : 1 536 kb/s
Channel(s) : 2 channels
Channel layout : L R
Sampling rate : 48.0 kHz
Bit depth : 16 bits
Stream size : 5.66 MiB (4%)
Language : English
Encoded date : UTC 2019-03-03 18:32:31

Canon FD Adapter to Canon EOS body 1200d




NOT WORKING AT INFINITY IS 50 CM MAXIMUM

Adaptor NOT WORKING to Canon 1200d EOS body
* Infinity at 50cm with Canon FL 50mm f/1.4
glass is needed to focus to INFINITY

FD-EOS adattatore di montaggio non anello vetro per obiettivo Canon FD EOS EF

Genova città deserta Seconda parte rimaniamo a casa Μένουμε Σπίτι και εμείς

rimaniamo a casa Seconda parte Genova città deserta #StayHome Γένοβα δεύτερο μέρος Μένουμε Σπίτι και εμείς 2nd Part desert Genoa Geno...