Showing posts with label Sony HDR-CX410. Show all posts
Showing posts with label Sony HDR-CX410. Show all posts

LG 28MT42VF PZ Disassembly broken smashed LCD display 28'' TV Monitor

 

 

 This video is for 28'' TV Monitor LG 28MT42VF PZ led tv and how you can to Disassembly and remove broken LCD display. Attention to small pieces of glass can hurt your hands. First remove all back screws and remove the back plate.After remove all small screws from the front frame. Remove the frame and detach the stickers holding the smashed LCD display. Buy new one if you can find economic 50-60$ max. Don’t forget to click the bell to turn on post notifications! Nikolaos Instagram: https://www.instagram.com/sakellarisnikolaos/ Twitter: https://twitter.com/SakellarisNiko Facebook: https://www.facebook.com/nikolaos.sakellaris/ Blog: https://video-photo-blog.blogspot.com/ I Am a Man Who Will Fight for Your Honor by Chris Zabriskie is licensed under a Creative Commons Attribution license (https://creativecommons.org/licenses/by/4.0/) Source: http://chriszabriskie.com/honor/ Artist: http://chriszabriskie.com/ Thank you 03TQHPL002 G0A0NB04T3872568M1772 715G8524-M01-B00-004K 715G7801-P01-W04-0H2H TBV280227D8X00K10CXC7A63214 LVB280WX220ADE2H0X 750TBV280227D8N000 B280WX220ADE2ELCAAC7A63214 12V = 2A 28" LED=18.9V/735mA 32" LED=23.8V/825mA P28080200 3837024 P 1283 SCA81794890012375 12800WT79J2Y1175 28MT42VF PZ 28'' HD Ready TV Monitor (28''Diagonal) Enjoy both TV and Monitor together Wide Viewing Angle 5W x 2 Stereo Speaker Wall Mount GENERAL Size (Inch / cm) 27.1" / 68.97cmPanel Type Wide Viewing Angle Colour Gamut (CIE1931) 0.68Colour Bit 8bit (6bit+FRC) Colour Depth (Num of Colours) 16.7MPixel Pitch (mm) 0.44475x0.44925 Aspect Ratio 16:9Resolution 1366 x 768 Brightness(cd/m2) 180(typ.), 160(Min.)Contrast Ratio (Original) 1200:1 (GTG) 8msViewing Angle (CR≥10) R/L 178 (Typ.), U/D178 (Typ.) (CR≥10) JACK INPUT/OUTPUT Composite 1Component 1 HDMI Yes (2EA, HDMI1.4)CI Slot Yes USB (Ver.) Yes (USB2.0)Jack Location (Signal Input) Rear/Side (Audio Input) RCA 1Digital(Tuner Input) Yes (DVB-T2/C/S2) Analog PAL/SECAMJack Location(Tuner Input) Rear SPEAKER Type InternalAudio output 5W x 2 POWER Type PSU (58W)Input 100V~240V Normal On (typ.) 34WDC Off (Max) 0.5W FREQUENCY HDMI (H-Frequency) 15.63kHz~67.5kHzHDMI (V-Frequency) 23.976Hz~70.08Hz RESOLUTION PC (HDMI) 1366 x 768Video (HDMI) 480i,576i, 480p, 576p 720p, 1080i, 1080p Component 480i, 576i, 480p, 576p 720p, 1080i, 1080pComposit 480i, 576i CONTROL KEY Key Number (Power Key Included) 1 KeyKey Type Tact LED Colour (On mode) OffLED Colour (Standby) Red [ Key Location ] Bottom OSD SPECIAL FEATURE HDCP YesRemote Control Yes EPG YesTeletext Yes Audio Description (Visual Impaired) YesDivx HD player (USB Media Player) Yes (without DivX codec) Smart Energy saving YesPicture Mode Vivid/ Standard/ Eco/ Cinema/Sports/Game ARC-PC 16:9 / Just Scan / Original / Full Wide / 4:3 / 14:9 / ZoomARC-Video 16:9 / Just Scan / Original / Full Wide / 4:3 / 14:9 / Zoom AVL (Auto Volume) YesAuto / Manual Clock Yes On/ Off Time YesSleep Timer Yes Auto Off / Auto Sleep Yes COLOUR Front Black GlossyB/Cover Black Texture Base Black Hairline+Texture STAND Base Detchable Detachable DIMENSION(W*D*H, MM) Set (with Stand) 635 x 182.4 x 427Set (without Stand) 635 x 77.8 x 387 Box 738 x 130 x 502Wall Mount size (mm) 100x100 WEIGHT(KG) Set (with Stand) 4.1Set (without Stand) 4 Box 5.7 STUFFING Pallet (20ft/40ft/40ft HC) 476 / 1088 / 1088 WRAP Packing Material EPSStacking Type Vertical Stand Packing Type Base DetachBox Printing Type Flexo 1 color Handle No (Hand hole) STANDARD ERP Yes (Class A)CE Yes ACCESSORY Power Cord YesRemote Controller Yes

HWBD1 CHDHY-401 Gopro hero 4 silver edition motherboard 10 pin USB 6 pins broken missing

 

 

 

 A small video of Gopro hero 4 silver edition HWBD1 CHDHY-401 disassembled motherboard has the 10 pin USB with 6 pins broken and missing 50fps 1920 x 1080 16:9 format video with Sony HDR-CX410VE Don’t forget to click the bell to turn on post notifications! Nikolaos Instagram: https://www.instagram.com/sakellarisnikolaos/ Twitter: https://twitter.com/SakellarisNiko Facebook: https://www.facebook.com/nikolaos.sakellaris/ Blog: https://video-photo-blog.blogspot.com/ Music TITLE The Beauty of Love ARTIST Aakash Gandhi https://youtu.be/X5kOSxkL6Lc Thank you Complete name : IAVCHD\BDMV\STREAM\00004.MTS Format : BDAV Format/Info : Blu-ray Video File size : 6.33 GiB Duration : 9 min 54 s Overall bit rate mode : Variable Overall bit rate : 91.5 Mb/s Maximum Overall bit rate : 28.0 Mb/s Recorded date : 2019-11-09 22:22:42+03:00 Writing application : Sony HDR-CX410VE Video ID : 4113 (0x1011) Menu ID : 1 (0x1) Format : AVC Format/Info : Advanced Video Codec Format profile : High@L4.2 Format settings : CABAC / 2 Ref Frames Format settings, CABAC : Yes Format settings, RefFrames : 2 frames Format settings, GOP : M=1, N=12 Codec ID : 27 Duration : 9 min 54 s Bit rate mode : Variable Bit rate : 87.4 Mb/s Maximum bit rate : 26.0 Mb/s Width : 1 920 pixels Height : 1 080 pixels Display aspect ratio : 16:9 Frame rate : 50.000 FPS Color space : YUV Chroma subsampling : 4:2:0 Bit depth : 8 bits Scan type : Progressive Bits/(Pixel*Frame) : 0.843 Stream size : 6.04 GiB (96%) IrisFNumber : 4.000000 Audio ID : 4352 (0x1100) Menu ID : 1 (0x1) Format : AC-3 Format/Info : Audio Coding 3 Commercial name : Dolby Digital Codec ID : 129 Duration : 9 min 54 s Bit rate mode : Constant Bit rate : 448 kb/s Channel(s) : 6 channels Channel layout : L R C LFE Ls Rs Sampling rate : 48.0 kHz Frame rate : 31.250 FPS (1536 SPF) Bit depth : 16 bits Compression mode : Lossy Stream size : 31.7 MiB (0%) Service kind : Complete Main Text ID : 4608 (0x1200) Menu ID : 1 (0x1) Format : PGS Codec ID : 144 Duration : 9 min 53 s

Εκδήλωση Westnet Distribution και HP Πέμπτη 24 Οκτωβρίου 2019 15:00 στο Φρούριο Λάρισας




H Westnet Distribution και η HP είχαν την τιμή να μας προσκαλέσουν στην εκδήλωση που πραγματοποιήθηκε την Πέμπτη 24 Οκτωβρίου 2019 στις 15:00 στο Φρούριο στη Λάρισα.

Είδαμε μαζί τις τελευταίες εξελίξεις στα προϊόντα της HP, τις ολοκληρωμένες υπηρεσίες που προσφέρει και πόσο μπορoύν να συμβάλουν στην αποδοτική και αποτελεσματική καθημερινή μας εργασία.

Full Moon 21 March 2019 : Sony HDR-CX410VE



Full Moon  21 March 2019 1080 50p
Camera Sony HDR-CX410vE  SteadyShot  Standard  - MF Manual Shoting  SpotMeter/Fcs Zoom 55x

Complete name : AVCHD\BDMV\STREAM\00016.MTS
Format : BDAV
Format/Info : Blu-ray Video
File size : 126 MiB
Duration : 40 s 580 ms
Overall bit rate mode : Variable
Overall bit rate : 26.1 Mb/s
Maximum Overall bit rate : 28.0 Mb/s
Recorded date : 2019-03-21 22:17:52+02:00
Writing application : Sony HDR-CX410VE

Video
ID : 4113 (0x1011)
Menu ID : 1 (0x1)
Format : AVC
Format/Info : Advanced Video Codec
Format profile : High@L4.2
Format settings : CABAC / 2 Ref Frames
Format settings, CABAC : Yes
Format settings, RefFrames : 2 frames
Format settings, GOP : M=1, N=12
Codec ID : 27
Duration : 39 s 840 ms
Bit rate mode : Variable
Bit rate : 24.6 Mb/s
Maximum bit rate : 26.0 Mb/s
Width : 1 920 pixels
Height : 1 080 pixels
Display aspect ratio : 16:9
Frame rate : 50.000 FPS
Color space : YUV
Chroma subsampling : 4:2:0
Bit depth : 8 bits
Scan type : Progressive
Bits/(Pixel*Frame) : 0.238
Stream size : 117 MiB (93%)
IrisFNumber : 4.000000

Audio
ID : 4352 (0x1100)
Menu ID : 1 (0x1)
Format : AC-3
Format/Info : Audio Coding 3
Commercial name : Dolby Digital
Codec ID : 129
Duration : 39 s 840 ms
Bit rate mode : Constant
Bit rate : 448 kb/s
Channel(s) : 6 channels
Channel layout : L R C LFE Ls Rs
Sampling rate : 48.0 kHz
Frame rate : 31.250 FPS (1536 SPF)
Bit depth : 16 bits
Compression mode : Lossy
Stream size : 2.13 MiB (2%)
Service kind : Complete Main

Text
ID : 4608 (0x1200)
Menu ID : 1 (0x1)
Format : PGS
Codec ID : 144
Duration : 39 s 295 ms

Απονομή Πιστοποιητικών Παρακολούθησης Σεμιναρίου 50 ωρών 2018-2019




Απονομή Πιστοποιητικών Παρακολούθησης Σεμιναρίου 50 ωρών "Η προσωπική και επαγγελματική σχέση των άλλων και του κόσμου: Οι θέσεις της ζωής"
 Σεμινάριο 2018-2019 
Κοινωνιολόγος-σύμβουλος Διονυσία Τριπολίτου

Πέμπτη 7 Μαρτίου 2019 και ώρα 18:00-21:00

Επιμελητήριο Λάρισας


Αward

Καλλιόπη Τζήκα : Ομιλία στην εκδήλωση πιστοποίησης (2018 2019)



Καλλιόπη Τζήκα
Γενική Γραμματέας του Επιμελητηρίου Λάρισας
Ομιλία στην εκδήλωση πιστοποίησης σεμιναρίου 50 ωρών (2018 2019)

Η προσωπική και επαγγελματική σχέση των άλλων και του κόσμου: Οι θέσεις της ζωής  Σεμινάριο 2018-2019 

Κοινωνιολόγος-σύμβουλος Διονυσία Τριπολίτου

Πέμπτη 7 Μαρτίου 2019 και ώρα 18:00-21:00

Επιμελητήριο Λάρισας

Σωτήρης Γιαννακόπουλος : Ομιλία στην εκδήλωση πιστοποίησης (2018 2019)



Πρόεδρος του Επιμελητηρίου Λάρισας
Σωτήρης Γιαννακόπουλος

Ομιλία στην εκδήλωση πιστοποίησης σεμιναρίου 50 ωρών (2018 2019)

Η προσωπική και επαγγελματική σχέση των άλλων και του κόσμου: Οι θέσεις της ζωής  Σεμινάριο 2018-2019 

Κοινωνιολόγος-σύμβουλος Διονυσία Τριπολίτου

Πέμπτη 7 Μαρτίου 2019 και ώρα 18:00-21:00

Επιμελητήριο Λάρισας

Διονυσία Τριπολίτου Ομιλία στην εκδήλωση πιστοποίησης (2018 2019)




Διονυσία Τριπολίτου Ομιλία στην εκδήλωση πιστοποίησης (2018 2019)
Η προσωπική και επαγγελματική σχέση των άλλων και του κόσμου: Οι θέσεις της ζωής  Σεμινάριο 2018-2019 

Κοινωνιολόγος-σύμβουλος Διονυσία Τριπολίτου

Πέμπτη 7 Μαρτίου 2019 και ώρα 18:00-21:00

Επιμελητήριο Λάρισας

Χορευτικό δρώμενο από τον Θωμά Μουτoγιάννο


Θωμάς Μουτογιάννος Δάσκαλος χορού
συμμετέχοντες:
Νίκη Ζυρπιάδου-
Σοφία Κουρκουμπά-
Ντιάνα Κυριτσάκα-
Σταμάτη Μάρκο-Βασιλική
Σταύρου-Αθηνά Ζήκου-
Σταύρο Μπουμπουνάρα-
Αλεξάνδρα Μουχτή-
Θεοδώρα Καραγκούνη-
Μαρία Παπά-
Στυλιανή Σουμουνούδη.
Η θεατρολόγος Βανέσσα Βραχνιάρη  διέθεσε στην σκηνογραφία.

Εκδήλωση πιστοποίησης σεμιναρίου 50 ωρών (2018 2019)



Η προσωπική και επαγγελματική σχέση των άλλων και του κόσμου: Οι θέσεις της ζωής

 Σεμινάριο 2018-2019 
Κοινωνιολόγος-σύμβουλος Διονυσία Τριπολίτου

Πέμπτη 7 Μαρτίου 2019 και ώρα 18:00-21:00

Επιμελητήριο Λάρισας

b. Full Moon : Sony HDR-CX410VE zoom 55x video test #003 FHD 1080 50p 28Mbit


No2 2019-02-19 : Full Moon zoom 55x Sony HDR-CX410VE video test #003 1920 1080 50p 28Mbit

Complete name : AVCHD\BDMV\STREAM\00003.MTS
Format : BDAV
Format/Info : Blu-ray Video
File size : 80.3 MiB
Duration : 25 s 374 ms
Overall bit rate mode : Variable
Overall bit rate : 26.5 Mb/s
Maximum Overall bit rate : 28.0 Mb/s
Recorded date : 2019-02-19 22:37:12+02:00
Writing application : Sony HDR-CX410VE

Video
ID : 4113 (0x1011)
Menu ID : 1 (0x1)
Format : AVC
Format/Info : Advanced Video Codec
Format profile : High@L4.2
Format settings : CABAC / 2 Ref Frames
Format settings, CABAC : Yes
Format settings, RefFrames : 2 frames
Format settings, GOP : M=1, N=12
Codec ID : 27
Duration : 25 s 440 ms
Bit rate mode : Variable
Bit rate : 25.0 Mb/s
Maximum bit rate : 26.0 Mb/s
Width : 1 920 pixels
Height : 1 080 pixels
Display aspect ratio : 16:9
Frame rate : 50.000 FPS
Color space : YUV
Chroma subsampling : 4:2:0
Bit depth : 8 bits
Scan type : Progressive
Bits/(Pixel*Frame) : 0.241
Stream size : 75.8 MiB (94%)
IrisFNumber : 4.800000

Audio
ID : 4352 (0x1100)
Menu ID : 1 (0x1)
Format : AC-3
Format/Info : Audio Coding 3
Commercial name : Dolby Digital
Codec ID : 129
Duration : 25 s 440 ms
Bit rate mode : Constant
Bit rate : 448 kb/s
Channel(s) : 6 channels
Channel layout : L R C LFE Ls Rs
Sampling rate : 48.0 kHz
Frame rate : 31.250 FPS (1536 SPF)
Bit depth : 16 bits
Compression mode : Lossy
Stream size : 1.36 MiB (2%)
Service kind : Complete Main

Text
ID : 4608 (0x1200)
Menu ID : 1 (0x1)
Format : PGS
Codec ID : 144
Duration : 24 s 895 ms

Nikolaos Sakellaris

a. Full Moon Sony HDR-CX410VE zoom 55x video test #002 FHD1080 50p 28Mbit



No1 2019-02-19  : Full Moon zoom 55x Sony HDR-CX410VE video test #002 1920 1080 50p 28Mbit

Complete name : AVCHD\BDMV\STREAM\00002.MTS
Format : BDAV
Format/Info : Blu-ray Video
File size : 72.5 MiB
Duration : 23 s 34 ms
Overall bit rate mode : Variable
Overall bit rate : 26.4 Mb/s
Maximum Overall bit rate : 28.0 Mb/s
Recorded date : 2019-02-19 22:36:30+02:00
Writing application : Sony HDR-CX410VE

Video
ID : 4113 (0x1011)
Menu ID : 1 (0x1)
Format : AVC
Format/Info : Advanced Video Codec
Format profile : High@L4.2
Format settings : CABAC / 2 Ref Frames
Format settings, CABAC : Yes
Format settings, RefFrames : 2 frames
Format settings, GOP : M=1, N=12
Codec ID : 27
Duration : 23 s 40 ms
Bit rate mode : Variable
Bit rate : 24.9 Mb/s
Maximum bit rate : 26.0 Mb/s
Width : 1 920 pixels
Height : 1 080 pixels
Display aspect ratio : 16:9
Frame rate : 50.000 FPS
Color space : YUV
Chroma subsampling : 4:2:0
Bit depth : 8 bits
Scan type : Progressive
Bits/(Pixel*Frame) : 0.240
Stream size : 68.4 MiB (94%)
IrisFNumber : 4.800000

Audio
ID : 4352 (0x1100)
Menu ID : 1 (0x1)
Format : AC-3
Format/Info : Audio Coding 3
Commercial name : Dolby Digital
Codec ID : 129
Duration : 23 s 40 ms
Bit rate mode : Constant
Bit rate : 448 kb/s
Channel(s) : 6 channels
Channel layout : L R C LFE Ls Rs
Sampling rate : 48.0 kHz
Frame rate : 31.250 FPS (1536 SPF)
Bit depth : 16 bits
Compression mode : Lossy
Stream size : 1.23 MiB (2%)
Service kind : Complete Main

Text
ID : 4608 (0x1200)
Menu ID : 1 (0x1)
Format : PGS
Codec ID : 144
Duration : 22 s 495 ms

Nikolaos Sakellaris

Sony HDR-CX410VE video test #001 1920 1080 50p 28Mbit



St. Nicholas Church Larissa Greece
Sony HDR-CX410VE video test #001 1920 1080 50p 28Mbit
with ZEIKOS PL 46mm JAPAN OPTICS Polarizing filter
Steadyshot ACTIVE

Complete name : CAMERA\00000.MTS
Format : BDAV
Format/Info : Blu-ray Video
File size : 76.9 MiB
Duration : 24 s 743 ms
Overall bit rate mode : Variable
Overall bit rate : 26.0 Mb/s
Maximum Overall bit rate : 28.0 Mb/s
Recorded date : 2019-02-19 15:51:49+02:00
Writing application : Sony HDR-CX410VE

Video
ID : 4113 (0x1011)
Menu ID : 1 (0x1)
Format : AVC
Format/Info : Advanced Video Codec
Format profile : High@L4.2
Format settings : CABAC / 2 Ref Frames
Format settings, CABAC : Yes
Format settings, RefFrames : 2 frames
Format settings, GOP : M=1, N=12
Codec ID : 27
Duration : 24 s 0 ms
Bit rate mode : Variable
Bit rate : 24.6 Mb/s
Maximum bit rate : 26.0 Mb/s
Width : 1 920 pixels
Height : 1 080 pixels
Display aspect ratio : 16:9
Frame rate : 50.000 FPS
Color space : YUV
Chroma subsampling : 4:2:0
Bit depth : 8 bits
Scan type : Progressive
Bits/(Pixel*Frame) : 0.237
Stream size : 70.2 MiB (91%)
IrisFNumber : 3.400000

Audio
ID : 4352 (0x1100)
Menu ID : 1 (0x1)
Format : AC-3
Format/Info : Audio Coding 3
Commercial name : Dolby Digital
Codec ID : 129
Duration : 24 s 0 ms
Bit rate mode : Constant
Bit rate : 448 kb/s
Channel(s) : 6 channels
Channel layout : L R C LFE Ls Rs
Sampling rate : 48.0 kHz
Frame rate : 31.250 FPS (1536 SPF)
Bit depth : 16 bits
Compression mode : Lossy
Stream size : 1.28 MiB (2%)
Service kind : Complete Main

Samsung NX Mini firmware update v1.10




Samsung NX Mini firmware update
 Upgrade to v1.10

"""I you are not shure how to do not do it"""
Maybe your camera cannot power-on or have severe damage.

A. Use the full charged battery

B. Suggested memory card format before upgrade start.

C. During the updating process :
   Do not cut off the power / Do not remove the battery

D. It causes the cannot power-on or the severe damage.
   Finish upgrade : all menu will be reset



Firmware upgrade method using i-Launcher

Download & install i-Launcher

Insert sd card & FORMAT with camera.

Connect the camera to your computer.

From Samsung i-Launcher - Select "Firmware Upgrade"

Automatically "Upgrade window" open if new firmware registered.

Click NEXT

You can check precautions

Click NEXT

Firmware download start

Once the transfer is complete, click the CLOSE button
FIRMWARE is TO sd card.

Remove the USB cable from CAMERA.






Turn the camera on.

Select MENU - Setting  --Sevice information.

Select "Frimware Update" -- Select "Body Firmware"

Select OK

Update will start follow below sequence.

Firmware version checking

Press "Yes"
- Upgrade start

Processing
- You can see the updating status

Power-off (Upgrade Finished)
- NX mini Auto power-off

Turn the camera on.

Select MENU - Setting - Device information.

v1.10


Filmed with Sony HDR-CX410VE 1920 1080 50p 28Mbit

Popular Posts