Showing posts with label Samsung 9mm f3.5 Wide. Show all posts
Showing posts with label Samsung 9mm f3.5 Wide. Show all posts

Samsung NX Mini 9mm f/3.5 Wide Prime lens firmware update v1.11 upgrade





Samsung NX Mini 9mm lens firmware update Upgrade to v1.11 lens upgrade Don’t forget to click the bell to turn on post notifications! Nikolaos Instagram: https://www.instagram.com/sakellarisnikolaos/ Twitter: https://twitter.com/SakellarisNiko Facebook: https://www.facebook.com/nikolaos.sakellaris/ Blog: https://video-photo-blog.blogspot.com/ Samsung NX Mini 9mm f/3.5 lens Firmware update 1.11 """I you are not shure how to do not do it""" Maybe your camera cannot power-on or have severe damage. A. Use the full charged battery B. Suggested memory card format before upgrade start. C. During the updating process : Do not cut off the power / Do not remove the battery D. It causes the cannot power-on or the severe damage. Finish upgrade : all menu will be reset ------------------------------------------------------------------------ Firmware upgrade method using i-Launcher. Firmware Update Tool ver 1.1.0.12 (MULTI LANGUAGE) https://www.samsung.com/hk_en/support/model/EV-NXF1ZZG1HHK/ Direct download http://org.downloadcenter.samsung.com/downloadfile/ContentsFile.aspx?CDSite=UNI_HK_EN&CttFileID=5679089&CDCttType=FM&ModelType=N&ModelName=NXF1&VPath=FM/201405/20140522144444686/iLauncher_setup.exe&OriginYN=N Download & install i-Launcher Insert sd card & FORMAT with camera. Connect the camera to your computer. From Samsung i-Launcher - Select "Firmware Upgrade" or Automatically "Upgrade window" open if new firmware registered. Click NEXT You can check precautions Click NEXT Firmware download start Once the transfer is complete, click the CLOSE button FIRMWARE is TO sd card. Remove the USB cable from CAMERA. -------------------------------------------------------------- Turn the camera on. Select MENU - Setting -- Device information. Select "Frimware Update" -- Select "Lens Firmware" Select OK Update will start follow below sequence. Firmware version checking

Saint Nicholas Church Larissa : Samsung NX Mini with Samsung 9mm f3.5 Wide Prime Lens 1080P 25P



Άγιος Νικόλαος Λάρισα Saint Nicholas Church Larissa 28 JAN 2020 1920 1080P 25P Camera Samsung NX Mini SteadyShot NO mode AUTO autofocus 9mm f/3.5 24mm @ 35mm Lens :Samsung 9mm f3.5 Wide Prime Lens NX Mini Don’t forget to click the bell to turn on post notifications! Nikolaos Instagram: https://www.instagram.com/sakellarisnikolaos/ Twitter: https://twitter.com/SakellarisNiko Facebook: https://www.facebook.com/nikolaos.sakellaris/ Blog: https://video-photo-blog.blogspot.com/ Complete name :DCIM\100PHOTO\SAM_0044.MP4 Format : MPEG-4 Format profile : Base Media / Version 2 Codec ID : mp42 (mp42/avc1) File size : 115 MiB Duration : 1 min 2 s Overall bit rate : 15.4 Mb/s Encoded date : UTC 2020-01-28 15:24:54 @sec : UNG Video ID : 1 Format : AVC Format/Info : Advanced Video Codec Format profile : High@L4 Format settings : CABAC / 2 Ref Frames Format settings, CABAC : Yes Format settings, Reference frames : 2 frames Format settings, GOP : M=3, N=12 Codec ID : avc1 Codec ID/Info : Advanced Video Coding Duration : 1 min 2 s Bit rate : 15.2 Mb/s Width : 1 920 pixels Height : 1 080 pixels Display aspect ratio : 16:9 Frame rate mode : Constant Frame rate : 25.000 FPS Color space : YUV Chroma subsampling : 4:2:0 Bit depth : 8 bits Scan type : Progressive Bits/(Pixel*Frame) : 0.294 Stream size : 113 MiB (99%) Codec configuration box : avcC Audio ID : 2 Format : AAC LC Format/Info : Advanced Audio Codec Low Complexity Codec ID : mp4a-40-2 Duration : 1 min 2 s Bit rate mode : Constant Bit rate : 128 kb/s Channel(s) : 1 channel Channel layout : C Sampling rate : 44.1 kHz Frame rate : 43.066 FPS (1024 SPF) Compression mode : Lossy Stream size : 953 KiB (1%)

Sunset : Samsung NX Mini with Samsung 9mm f3.5 Wide Prime Lens 1080P 25P





Sunset 28 JAN 2020 1920 1080P 25P Camera Samsung NX Mini SteadyShot NO mode MF Manual Shoting ISO 400 9mm f/3.5 24mm @ 35mm Lens :Samsung 9mm f3.5 Wide Prime Lens NX Mini Don’t forget to click the bell to turn on post notifications! Nikolaos Instagram: https://www.instagram.com/sakellarisnikolaos/ Twitter: https://twitter.com/SakellarisNiko Facebook: https://www.facebook.com/nikolaos.sakellaris/ Blog: https://video-photo-blog.blogspot.com/ Complete name : DCIM\100PHOTO\SAM_0064.MP4 Format : MPEG-4 Format profile : Base Media / Version 2 Codec ID : mp42 (mp42/avc1) File size : 139 MiB Duration : 1 min 22 s Overall bit rate : 14.1 Mb/s Encoded date : UTC 2020-01-28 18:09:32 @sec : UNG Video ID : 1 Format : AVC Format/Info : Advanced Video Codec Format profile : High@L4 Format settings : CABAC / 2 Ref Frames Format settings, CABAC : Yes Format settings, Reference frames : 2 frames Format settings, GOP : M=3, N=12 Codec ID : avc1 Codec ID/Info : Advanced Video Coding Duration : 1 min 22 s Bit rate : 13.9 Mb/s Width : 1 920 pixels Height : 1 080 pixels Display aspect ratio : 16:9 Frame rate mode : Constant Frame rate : 25.000 FPS Color space : YUV Chroma subsampling : 4:2:0 Bit depth : 8 bits Scan type : Progressive Bits/(Pixel*Frame) : 0.269 Stream size : 137 MiB (99%) Codec configuration box : avcC Audio ID : 2 Format : AAC LC Format/Info : Advanced Audio Codec Low Complexity Codec ID : mp4a-40-2 Duration : 1 min 22 s Bit rate mode : Constant Bit rate : 128 kb/s Channel(s) : 1 channel Channel layout : C Sampling rate : 44.1 kHz Frame rate : 43.066 FPS (1024 SPF) Compression mode : Lossy Stream size : 1.24 MiB (1%)

Genova città deserta Seconda parte rimaniamo a casa Μένουμε Σπίτι και εμείς

rimaniamo a casa Seconda parte Genova città deserta #StayHome Γένοβα δεύτερο μέρος Μένουμε Σπίτι και εμείς 2nd Part desert Genoa Geno...