Showing posts with label PARAGON f/8 500mm f72. Show all posts
Showing posts with label PARAGON f/8 500mm f72. Show all posts

Pink moon rising april 2020 Sony NEX 5N PARAGON f/8 500mm Ø72 T2 to NEX 750mm @ 35mm

 

 

 8 4 2020 Pink moon rising Sony NEX 5N 1080 50p UNEDITED VIDEO FILE) Filming Location: Larissa , Greece. Camera : Sony NEX 5N 16.1 Mp Crop factor 1.5 Lens: PARAGON f/8 500mm Ø72 T2 - @ f/16 Mode : A ISO 100 EV 0,0 center focus Video Stabilization OFF Video 1920x1080 50ps crop 1.5 at 35mm Don’t forget to click the bell to turn on post notifications! Nikolaos Instagram: https://www.instagram.com/sakellarisnikolaos/ Twitter: https://twitter.com/SakellarisNiko Facebook: https://www.facebook.com/nikolaos.sakellaris/ Blog: https://video-photo-blog.blogspot.com/ Music TITLE Reflections ARTIST MK2 https://www.youtube.com/watch?v=Krw642HTCgw&list=PLzCxunOM5WFK2ghyefGBAt06p_CTBIE3L Thank you Complete name : D:\PHOTO\SIONY\NEX-5N\stream\00029.MTS Format : BDAV Format/Info : Blu-ray Video File size : 302 MiB Duration : 1 min 35 s Overall bit rate mode : Variable Overall bit rate : 26.5 Mb/s Maximum Overall bit rate : 28.0 Mb/s Recorded date : 2020-04-08 20:33:44+02:00 Writing application : Sony NEX-5N Video ID : 4113 (0x1011) Menu ID : 1 (0x1) Format : AVC Format/Info : Advanced Video Codec Format profile : High@L4.2 Format settings : CABAC / 2 Ref Frames Format settings, CABAC : Yes Format settings, RefFrames : 2 frames Format settings, GOP : M=1, N=12 Codec ID : 27 Duration : 1 min 35 s Bit rate mode : Variable Bit rate : 25.2 Mb/s Maximum bit rate : 26.0 Mb/s Width : 1 920 pixels Height : 1 080 pixels Display aspect ratio : 16:9 Frame rate : 50.000 FPS Color space : YUV Chroma subsampling : 4:2:0 Bit depth : 8 bits Scan type : Progressive Bits/(Pixel*Frame) : 0.243 Stream size : 287 MiB (95%) IrisFNumber : 0.000000 Audio ID : 4352 (0x1100) Menu ID : 1 (0x1) Format : AC-3 Format/Info : Audio Coding 3 Commercial name : Dolby Digital Codec ID : 129 Duration : 1 min 35 s Bit rate mode : Constant Bit rate : 256 kb/s Channel(s) : 2 channels Channel layout : L R Sampling rate : 48.0 kHz Frame rate : 31.250 FPS (1536 SPF) Bit depth : 16 bits Compression mode : Lossy Stream size : 2.92 MiB (1%) Service kind : Complete Main Text ID : 4608 (0x1200) Menu ID : 1 (0x1) Format : PGS Codec ID : 144 Duration : 1 min 34 s

 

Super pink moon april 2020 Sony NEX 5R 2.4x zoom PARAGON f/8 500mm Ø72 T2 to NEX 750mm @ 35mm


Super pink moon april 2020 Sony NEX 5R 2.4x digital zoom PARAGON f/8 500mm Ø72 T2 to NEX 750mm @ 35mm



2.4x digital zoom  THE SUPER PINK MOON Sony NEX 5R 1080 50p UNEDITED VIDEO FILE) 7 4 2020
Filming Location: Larissa , Greece.
Camera : Sony NEX 5R 16.1 Mp 
Crop factor 1.5
Lens: PARAGON f/8 500mm Ø72 T2 - @ f/16 
Mode : A  ISO 100 EV 0,0 center focus
Video Stabilization OFF Video 1920x1080 50ps crop 1.5 at 35mm

Don’t forget to click the bell to turn on post notifications!

Nikolaos Instagram: https://www.instagram.com/sakellarisnikolaos/
Twitter: https://twitter.com/SakellarisNiko
Facebook: https://www.facebook.com/nikolaos.sakellaris/
Blog: https://video-photo-blog.blogspot.com/

Music
TITLE A Singular Perversion - Darkness
ARTIST Kevin MacLeod
https://www.youtube.com/watch?v=Lw1QRAoae2w
Thank you
 
Complete name : AVCHD\BDMV\STREAM\00127.MTS 
Format : BDAV 
Format/Info : Blu-ray Video 
File size : 103 MiB 
Duration : 32 s 571 ms 
Overall bit rate mode : Variable 
Overall bit rate : 26.4 Mb/s 
Maximum Overall bit rate : 28.0 Mb/s 
Recorded date : 2020-04-08 02:04:28+02:00 
Writing application : Sony NEX-5R 

Video 
ID : 4113 (0x1011) 
Menu ID : 1 (0x1) 
Format : AVC 
Format/Info : Advanced Video Codec 
Format profile : High@L4.2 
Format settings : CABAC / 2 Ref Frames 
Format settings, CABAC : Yes 
Format settings, RefFrames : 2 frames 
Format settings, GOP : M=1, N=12 
Codec ID : 27 
Duration : 32 s 640 ms 
Bit rate mode : Variable 
Bit rate : 25.1 Mb/s 
Maximum bit rate : 26.0 Mb/s 
Width : 1 920 pixels 
Height : 1 080 pixels 
Display aspect ratio : 16:9 
Frame rate : 50.000 FPS 
Color space : YUV 
Chroma subsampling : 4:2:0 
Bit depth : 8 bits 
Scan type : Progressive 
Bits/(Pixel*Frame) : 0.242 
Stream size : 97.6 MiB (95%) 
IrisFNumber : 0.000000 

Audio 
ID : 4352 (0x1100) 
Menu ID : 1 (0x1) 
Format : AC-3 
Format/Info : Audio Coding 3 
Commercial name : Dolby Digital 
Codec ID : 129 
Duration : 32 s 640 ms 
Bit rate mode : Constant 
Bit rate : 256 kb/s 
Channel(s) : 2 channels 
Channel layout : L R 
Sampling rate : 48.0 kHz 
Frame rate : 31.250 FPS (1536 SPF) 
Bit depth : 16 bits 
Compression mode : Lossy 
Stream size : 1 020 KiB (1%) 
Service kind : Complete Main 

Text 
ID : 4608 (0x1200) 
Menu ID : 1 (0x1) 
Format : PGS 
Codec ID : 144 
Duration : 32 s 95 ms






Super pink moon april 2020,
Tuesday April 7 2020 THE SUPER PINK MOON,
SUPER PINK MOON,April 7 THE SUPER PINK MOON,
2020 THE SUPER PINK MOON,
April 7 2020 THE SUPER PINK MOON,
Sony NEX-5R with PARAGON f/8 500mm,T2 adapted to NEX,
Sony NEX 5R adapted to T2,
Sony NEX 5R PARAGON f/8 500mm,Full moon Sony NEX 5R,
Sony NEX 5R in mode M iso 100 1/500,
Full moon sony nex 5R,
Full moon,PARAGON f/8 500mm


Super pink moon april 2020 Sony NEX 5N PARAGON f/8 500mm Ø72 T2 to NEX 750mm @ 35mm


Super pink moon april 2020 Sony NEX 5N PARAGON f/8 500mm Ø72 T2 to NEX 750mm @ 35mm



7 4 2020 THE SUPER PINK MOON Sony NEX 5N 1080 50p UNEDITED VIDEO FILE)
Filming Location: Larissa , Greece.
Camera : Sony NEX 5N 16.1 Mp 
Crop factor 1.5
Lens: PARAGON f/8 500mm Ø72 T2 - @ f/16 
Mode : A  ISO 100 EV 0,0 center focus
Video Stabilization OFF Video 1920x1080 50ps crop 1.5 at 35mm

Don’t forget to click the bell to turn on post notifications!

Nikolaos Instagram: https://www.instagram.com/sakellarisnikolaos/
Twitter: https://twitter.com/SakellarisNiko
Facebook: https://www.facebook.com/nikolaos.sakellaris/
Blog: https://video-photo-blog.blogspot.com/

Music
TITLE Reflections  
ARTIST MK2
https://www.youtube.com/watch?v=Krw642HTCgw&list=PLzCxunOM5WFK2ghyefGBAt06p_CTBIE3L
Thank you

Complete name : AVCHD\BDMV\STREAM\00027.MTS 
Format : BDAV 
Format/Info : Blu-ray Video 
File size : 291 MiB 
Duration : 1 min 32 s 
Overall bit rate mode : Variable 
Overall bit rate : 26.4 Mb/s 
Maximum Overall bit rate : 28.0 Mb/s 
Recorded date : 2020-04-08 02:11:20+02:00 
Writing application : Sony NEX-5N 

Video 
ID : 4113 (0x1011) 
Menu ID : 1 (0x1) 
Format : AVC 
Format/Info : Advanced Video Codec 
Format profile : High@L4.2 
Format settings : CABAC / 2 Ref Frames 
Format settings, CABAC : Yes 
Format settings, RefFrames : 2 frames 
Format settings, GOP : M=1, N=12 
Codec ID : 27 
Duration : 1 min 32 s 
Bit rate mode : Variable 
Bit rate : 25.1 Mb/s 
Maximum bit rate : 26.0 Mb/s 
Width : 1 920 pixels 
Height : 1 080 pixels 
Display aspect ratio : 16:9 
Frame rate : 50.000 FPS 
Color space : YUV 
Chroma subsampling : 4:2:0 
Bit depth : 8 bits 
Scan type : Progressive 
Bits/(Pixel*Frame) : 0.242 
Stream size : 276 MiB (95%) 
IrisFNumber : 0.000000 

Audio 
ID : 4352 (0x1100) 
Menu ID : 1 (0x1) 
Format : AC-3 
Format/Info : Audio Coding 3 
Commercial name : Dolby Digital 
Codec ID : 129 
Duration : 1 min 32 s 
Bit rate mode : Constant 
Bit rate : 256 kb/s 
Channel(s) : 2 channels 
Channel layout : L R 
Sampling rate : 48.0 kHz 
Frame rate : 31.250 FPS (1536 SPF) 
Bit depth : 16 bits 
Compression mode : Lossy 
Stream size : 2.81 MiB (1%) 
Service kind : Complete Main 

Text 
ID : 4608 (0x1200) 
Menu ID : 1 (0x1) 
Format : PGS 
Codec ID : 144 
Duration : 1 min 31 s






Super pink moon april 2020,
Tuesday April 7 2020 THE SUPER PINK MOON,
SUPER PINK MOON,April 7 THE SUPER PINK MOON,
2020 THE SUPER PINK MOON,
April 7 2020 THE SUPER PINK MOON,
super pink moon 4K,Sony NEX-5N with PARAGON f/8 500mm,
T2 adapted to NEX,
Sony NEX 5N adapted to T2,
Sony NEX 5N PARAGON f/8 500mm,
Full moon Sony NEX 5N,Sony NEX 5N in mode M iso 100 1/500,
Full moon sony nex 5N,Full moon,PARAGON f/8 500mm


Full moon Creative Style Portrait -3-3-3 Sony NEX-5R with with PARAGON f/8 500mm Ø72 T2 to NEX


 
Full moon Creative Style  Crtv-S Portrait -3-3-3 
Filming Location: Larissa , Greece.
Camera : Sony NEX 5R 16.1 Mp 
Crop factor 1.5
Lens: PARAGON f/8 500mm Ø72 T2 - @ f/8 
Mode : M  ISO 200 EV 0,0  (1/500) creative style Portrait -3-3-3
Video Stabilization OFF Video 1920x1080 @ 50fps
T2 adapted to NEX 

Don’t forget to Subscribe and  click the bell to turn on post notifications!

Nikolaos Instagram: https://www.instagram.com/sakellarisnikolaos/
Twitter: https://twitter.com/SakellarisNiko
Facebook: https://www.facebook.com/nikolaos.sakellaris/
Blog: https://video-photo-blog.blogspot.com/


Complete name : AVCHD\BDMV\STREAM\00112.MTS 
Format : BDAV 
Format/Info : Blu-ray Video 
File size : 212 MiB 
Duration : 1 min 7 s 
Overall bit rate mode : Variable 
Overall bit rate : 26.5 Mb/s 
Maximum Overall bit rate : 28.0 Mb/s 
Recorded date : 2020-03-10 06:28:51+02:00 
Writing application : Sony NEX-5R 

Video 
ID : 4113 (0x1011) 
Menu ID : 1 (0x1) 
Format : AVC 
Format/Info : Advanced Video Codec 
Format profile : High@L4.2 
Format settings : CABAC / 2 Ref Frames 
Format settings, CABAC : Yes 
Format settings, Reference frames : 2 frames 
Format settings, GOP : M=1, N=12 
Codec ID : 27 
Duration : 1 min 7 s 
Bit rate mode : Variable 
Bit rate : 25.2 Mb/s 
Maximum bit rate : 26.0 Mb/s 
Width : 1 920 pixels 
Height : 1 080 pixels 
Display aspect ratio : 16:9 
Frame rate : 50.000 FPS 
Color space : YUV 
Chroma subsampling : 4:2:0 
Bit depth : 8 bits 
Scan type : Progressive 
Bits/(Pixel*Frame) : 0.243 
Stream size : 202 MiB (95%) 
IrisFNumber : 0.000000 

Audio 
ID : 4352 (0x1100) 
Menu ID : 1 (0x1) 
Format : AC-3 
Format/Info : Audio Coding 3 
Commercial name : Dolby Digital 
Codec ID : 129 
Duration : 1 min 7 s 
Bit rate mode : Constant 
Bit rate : 256 kb/s 
Channel(s) : 2 channels 
Channel layout : L R 
Sampling rate : 48.0 kHz 
Frame rate : 31.250 FPS (1536 SPF) 
Compression mode : Lossy 
Stream size : 2.05 MiB (1%) 
Service kind : Complete Main 

Text 
ID : 4608 (0x1200) 
Menu ID : 1 (0x1) 
Format : PGS 
Codec ID : 144 
Duration : 1 min 6 s

Half Moon : Xiaomi Yi M1 with PARAGON f/8 500mm Ø72 T2 adapted to M4/3 4k



Half Moon Blue Sky Larissa Greece
Camera : Xiaomi Yi M1 mirrorless Sony IMX269
Lens : PARAGON f/8 500mm Ø72 T2 @ f/11
Mode : A ISO 200 EV 0,0
Video Stabilization OFF Video 3840x2160 @ 30fps
T2 adapted MFT
Yi M1 T2 adapted video test
Xiaomi Yi M1 PARAGON

Complete name : XIAOMI\YI M1\PB060185.MP4
Format : MPEG-4
Format profile : Base Media / Version 2
Codec ID : mp42 (mp42/avc1)
File size : 1.86 GiB
Duration : 3 min 31 s
Overall bit rate mode : Variable
Overall bit rate : 75.7 Mb/s
Encoded date : UTC 2019-11-06 17:10:50
Tagged date : UTC 2019-11-06 17:10:50

Video
ID : 1
Format : AVC
Format/Info : Advanced Video Codec
Format profile : High@L5.1
Format settings : 1 Ref Frames
Format settings, CABAC : No
Format settings, Reference frames : 1 frame
Format settings, GOP : M=1, N=15
Codec ID : avc1
Codec ID/Info : Advanced Video Coding
Duration : 3 min 31 s
Bit rate : 75.6 Mb/s
Width : 3 840 pixels
Height : 2 160 pixels
Display aspect ratio : 16:9
Frame rate mode : Constant
Frame rate : 29.970 (30000/1001) FPS
Color space : YUV
Chroma subsampling : 4:2:0
Bit depth : 8 bits
Scan type : Progressive
Bits/(Pixel*Frame) : 0.304
Stream size : 1.86 GiB (100%)
Language : English
Encoded date : UTC 2019-11-06 17:10:50
Tagged date : UTC 2019-11-06 17:10:50
Color range : Full
Color primaries : BT.601 NTSC
Transfer characteristics : BT.709
Matrix coefficients : BT.601
Menus : 3
Codec configuration box : avcC

Audio
ID : 2
Format : AAC LC
Format/Info : Advanced Audio Codec Low Complexity
Codec ID : mp4a-40-2
Duration : 3 min 31 s
Source duration : 3 min 31 s
Bit rate mode : Variable
Bit rate : 128 kb/s
Maximum bit rate : 192 kb/s
Channel(s) : 2 channels
Channel layout : L R
Sampling rate : 48.0 kHz
Frame rate : 46.875 FPS (1024 SPF)
Compression mode : Lossy
Stream size : 3.21 MiB (0%)
Source stream size : 3.21 MiB (0%)
Language : English
Encoded date : UTC 2019-11-06 17:10:50



Full Moon rises : Lumix DMC-GX80 + SIGMA TELEMAC VARIO 2X-3X + PARAGON f/8 500mm f72 4k UHD 25fps




Full Moon rises 13/OCT/2019
Camera : Panasonic Lumix DMC-GX80
Lens: PARAGON f/8 500mm f72 T2 - @ f/16
Teleconverter : SIGMA TELEMAC VARIO 2X 2.5X 3X  m42
video test 4k UHD  3840 x 2160 25fps
PARAGON 500mm f/8
1:8 f= 500mm



Complete name : PHOTO\PANASONIC\DMC-GX80\P1100473.MP4
Format : MPEG-4
Format profile : Base Media / Version 2
Codec ID : mp42 (mp42/avc1)
File size : 963 MiB
Duration : 3 min 1 s
Overall bit rate mode : Variable
Overall bit rate : 44.4 Mb/s
Encoded date : UTC 2019-10-13 19:42:37
PANA : Ê

Video
ID : 1
Format : AVC
Format/Info : Advanced Video Codec
Format profile : High@L5.1
Format settings : CABAC / 2 Ref Frames
Format settings, CABAC : Yes
Format settings, Reference frames : 2 frames
Codec ID : avc1
Codec ID/Info : Advanced Video Coding
Duration : 3 min 1 s
Bit rate mode : Variable
Bit rate : 44.3 Mb/s
Maximum bit rate : 106 Mb/s
Width : 3 840 pixels
Height : 2 160 pixels
Display aspect ratio : 16:9
Frame rate mode : Constant
Frame rate : 25.000 FPS
Color space : YUV
Chroma subsampling : 4:2:0
Bit depth : 8 bits
Scan type : Progressive
Bits/(Pixel*Frame) : 0.214
Stream size : 960 MiB (100%)
Encoded date : UTC 2019-10-13 19:42:37
Color range : Limited
Color primaries : BT.709
Transfer characteristics : BT.709
Matrix coefficients : BT.709
Codec configuration box : avcC

Audio
ID : 2
Format : AAC LC
Format/Info : Advanced Audio Codec Low Complexity
Codec ID : mp4a-40-2
Duration : 3 min 1 s
Source duration : 3 min 1 s
Bit rate mode : Constant
Bit rate : 128 kb/s
Channel(s) : 2 channels
Channel layout : L R
Sampling rate : 48.0 kHz
Frame rate : 46.875 FPS (1024 SPF)
Compression mode : Lossy
Stream size : 2.72 MiB (0%)
Source stream size : 2.72 MiB (0%)
Encoded date : UTC 2019-10-13 19:42:37

Full Moon rises : Lumix DMC-GX80 + PARAGON f/8 500mm f72 4k UHD 25fps




Full Moon rises 13/OCT/2019
Camera : Panasonic Lumix DMC-GX80
Lens: PARAGON f/8 500mm f72 T2 - @ f/16
video test 4k UHD  3840 x 2160 25fps
PARAGON 500mm f/8
1:8 f= 500mm

Full Moon : Panasonic Lumix DMC-GX80 + PARAGON f/8 500mm f72 + SIGMA TELEMAC VARIO 2X-3X UHD 25fps



Full Moon 13/OCT/2019
Camera : Panasonic Lumix DMC-GX80
Lens: PARAGON f/8 500mm f72 T2 - @ f/16
Teleconverter : SIGMA TELEMAC VARIO 2X 2.5X 3X  m42
video test 4k UHD  3 840 x 2 160  25fps
PARAGON 500mm f/8

Complete name : DCIM\110_PANA\P1100380.MP4
Format : MPEG-4
Format profile : Base Media / Version 2
Codec ID : mp42 (mp42/avc1)
File size : 1.42 GiB
Duration : 4 min 58 s
Overall bit rate mode : Variable
Overall bit rate : 40.9 Mb/s
Encoded date : UTC 2019-10-13 01:52:20
PANA : Ê 

Video
ID : 1
Format : AVC
Format/Info : Advanced Video Codec
Format profile : High@L5.1
Format settings : CABAC / 2 Ref Frames
Format settings, CABAC : Yes
Format settings, Reference frames : 2 frames
Codec ID : avc1
Codec ID/Info : Advanced Video Coding
Duration : 4 min 58 s
Bit rate mode : Variable
Bit rate : 40.7 Mb/s
Maximum bit rate : 106 Mb/s
Width : 3 840 pixels
Height : 2 160 pixels
Display aspect ratio : 16:9
Frame rate mode : Constant
Frame rate : 25.000 FPS
Color space : YUV
Chroma subsampling : 4:2:0
Bit depth : 8 bits
Scan type : Progressive
Bits/(Pixel*Frame) : 0.196
Stream size : 1.42 GiB (100%)
Encoded date : UTC 2019-10-13 01:52:20
Color range : Limited
Color primaries : BT.709
Transfer characteristics : BT.709
Matrix coefficients : BT.709
Codec configuration box : avcC

Audio
ID : 2
Format : AAC LC
Format/Info : Advanced Audio Codec Low Complexity
Codec ID : mp4a-40-2
Duration : 4 min 58 s
Source duration : 4 min 58 s
Bit rate mode : Constant
Bit rate : 128 kb/s
Channel(s) : 2 channels
Channel layout : L R
Sampling rate : 48.0 kHz
Frame rate : 46.875 FPS (1024 SPF)
Compression mode : Lossy
Stream size : 4.46 MiB (0%)
Source stream size : 4.46 MiB (0%)
Encoded date : UTC 2019-10-13 01:52:20

Full Moon : Panasonic Lumix DMC-GX80 + PARAGON f/8 500mm f72 4k UHD 25fps



Full Moon 13/OCT/2019
Camera : Panasonic Lumix DMC-GX80
Lens: PARAGON f/8 500mm f72 T2 - @ f/16
video test 4k UHD  3840 x 2160 25fps
PARAGON 500mm f/8

Complete name : DCIM\110_PANA\P1100381.MP4
Format : MPEG-4
Format profile : Base Media / Version 2
Codec ID : mp42 (mp42/avc1)
File size : 1.52 GiB
Duration : 6 min 43 s
Overall bit rate mode : Variable
Overall bit rate : 32.3 Mb/s
Encoded date : UTC 2019-10-13 02:05:52
PANA : Ê 

Video
ID : 1
Format : AVC
Format/Info : Advanced Video Codec
Format profile : High@L5.1
Format settings : CABAC / 2 Ref Frames
Format settings, CABAC : Yes
Format settings, Reference frames : 2 frames
Codec ID : avc1
Codec ID/Info : Advanced Video Coding
Duration : 6 min 43 s
Bit rate mode : Variable
Bit rate : 32.2 Mb/s
Maximum bit rate : 106 Mb/s
Width : 3 840 pixels
Height : 2 160 pixels
Display aspect ratio : 16:9
Frame rate mode : Constant
Frame rate : 25.000 FPS
Color space : YUV
Chroma subsampling : 4:2:0
Bit depth : 8 bits
Scan type : Progressive
Bits/(Pixel*Frame) : 0.155
Stream size : 1.51 GiB (100%)
Encoded date : UTC 2019-10-13 02:05:52
Color range : Limited
Color primaries : BT.709
Transfer characteristics : BT.709
Matrix coefficients : BT.709
Codec configuration box : avcC

Audio
ID : 2
Format : AAC LC
Format/Info : Advanced Audio Codec Low Complexity
Codec ID : mp4a-40-2
Duration : 6 min 43 s
Source duration : 6 min 43 s
Bit rate mode : Constant
Bit rate : 128 kb/s
Channel(s) : 2 channels
Channel layout : L R
Sampling rate : 48.0 kHz
Frame rate : 46.875 FPS (1024 SPF)
Compression mode : Lossy
Stream size : 6.03 MiB (0%)
Source stream size : 6.03 MiB (0%)
Encoded date : UTC 2019-10-13 02:05:52

Moon : Samsung NX20 + PARAGON f/8 500mm f72 + SIGMA TELEMAC VARIO 2X-3X FHD 1080 25fps



Moon 13/OCT/2019
Camera : Samsung NX20
Lens: PARAGON f/8 500mm f72 T2 - @ f/16
Teleconverter : SIGMA TELEMAC VARIO 2X 2.5X 3X  m42
video test FHD 1080 25fps
PARAGON 500mm f/8

Complete name : DCIM\104PHOTO\SAM_4349.MP4
Format : MPEG-4
Format profile : Base Media / Version 2
Codec ID : mp42 (mp42/isom/avc1)
File size : 162 MiB
Duration : 4 min 6 s
Overall bit rate : 5 515 kb/s

Video
ID : 1
Format : AVC
Format/Info : Advanced Video Codec
Format profile : High@L4.1
Format settings : 2 Ref Frames
Format settings, CABAC : No
Format settings, RefFrames : 2 frames
Format settings, GOP : M=1, N=25
Codec ID : avc1
Codec ID/Info : Advanced Video Coding
Duration : 4 min 6 s
Bit rate : 5 386 kb/s
Width : 1 920 pixels
Height : 1 080 pixels
Display aspect ratio : 16:9
Frame rate mode : Constant
Frame rate : 25.000 FPS
Color space : YUV
Chroma subsampling : 4:2:0
Bit depth : 8 bits
Scan type : Progressive
Bits/(Pixel*Frame) : 0.104
Stream size : 158 MiB (98%)
Language : English
Codec configuration box : avcC

Audio
ID : 2
Format : AAC LC
Format/Info : Advanced Audio Codec Low Complexity
Codec ID : mp4a-40-2
Duration : 4 min 6 s
Bit rate mode : Constant
Bit rate : 128 kb/s
Channel(s) : 2 channels
Channel layout : L R
Sampling rate : 32.0 kHz
Frame rate : 31.250 FPS (1024 SPF)
Compression mode : Lossy
Stream size : 3.72 MiB (2%)
Language : English

Moon : Samsung NX20 + PARAGON f/8 500mm f72 FHD 1080 25fps



Moon 13/OCT/2019
Camera : Samsung NX20
Lens: PARAGON f/8 500mm f72 T2 - @ f/16
video test FHD 1080 25fps
PARAGON 500mm f/8



Moon : Sony SLT-A33 + PARAGON f/8 500mm f72 + SIGMA TELEMAC VARIO 2X-3X FHD 1080 25fps



Moon 12/OCT/2019
Camera : Sony SLT-A33
Lens: PARAGON f/8 500mm f72 T2 - @ f/11 T2
Teleconverter : SIGMA TELEMAC VARIO 2X 2.5X 3X  m42
video test FHD 1080 25fps

Complete name : STREAM\00224.MTS
Format : BDAV
Format/Info : Blu-ray Video
File size : 495 MiB
Duration : 4 min 3 s
Overall bit rate mode : Variable
Overall bit rate : 17.1 Mb/s
Maximum Overall bit rate : 18.0 Mb/s
Recorded date : 2019-10-11 23:48:33+02:00
Writing application : Sony SLT-A33
1:8 f= 500mm


Video
ID : 4113 (0x1011)
Menu ID : 1 (0x1)
Format : AVC
Format/Info : Advanced Video Codec
Format profile : High@L4
Format settings : CABAC / 2 Ref Frames
Format settings, CABAC : Yes
Format settings, Reference frames : 2 frames
Format settings, GOP : M=2, N=13
Codec ID : 27
Duration : 4 min 3 s
Bit rate mode : Variable
Bit rate : 16.0 Mb/s
Width : 1 920 pixels
Height : 1 080 pixels
Display aspect ratio : 16:9
Frame rate : 25.000 FPS
Color space : YUV
Chroma subsampling : 4:2:0
Bit depth : 8 bits
Scan type : Interlaced
Scan type, store method : Separated fields
Scan order : Top Field First
Bits/(Pixel*Frame) : 0.309
Stream size : 467 MiB (94%)
IrisFNumber : 1.000000

Audio
ID : 4352 (0x1100)
Menu ID : 1 (0x1)
Format : AC-3
Format/Info : Audio Coding 3
Commercial name : Dolby Digital
Codec ID : 129
Duration : 4 min 3 s
Bit rate mode : Constant
Bit rate : 256 kb/s
Channel(s) : 2 channels
Channel layout : L R
Sampling rate : 48.0 kHz
Frame rate : 31.250 FPS (1536 SPF)
Compression mode : Lossy
Delay relative to video : -80 ms
Stream size : 7.43 MiB (2%)
Service kind : Complete Main

Text
ID : 4608 (0x1200)
Menu ID : 1 (0x1)
Format : PGS
Codec ID : 144
Duration : 4 min 2 s
Delay relative to video : -80 ms

Moon : Sony SLT-A33 + PARAGON f/8 500mm f72 FHD 1080 25fps



Moon 12/OCT/2019
Camera : Sony SLT-A33
Lens: PARAGON f/8 500mm f72 T2 - @ f/11 T2
video test FHD 1080 25fps

Complete name : STREAM\00223.MTS
Format : BDAV
Format/Info : Blu-ray Video
File size : 504 MiB
Duration : 4 min 8 s
Overall bit rate mode : Variable
Overall bit rate : 17.0 Mb/s
Maximum Overall bit rate : 18.0 Mb/s
Recorded date : 2019-10-11 23:40:39+02:00
Writing application : Sony SLT-A33

Video
ID : 4113 (0x1011)
Menu ID : 1 (0x1)
Format : AVC
Format/Info : Advanced Video Codec
Format profile : High@L4
Format settings : CABAC / 2 Ref Frames
Format settings, CABAC : Yes
Format settings, Reference frames : 2 frames
Format settings, GOP : M=2, N=13
Codec ID : 27
Duration : 4 min 7 s
Bit rate mode : Variable
Bit rate : 16.0 Mb/s
Width : 1 920 pixels
Height : 1 080 pixels
Display aspect ratio : 16:9
Frame rate : 25.000 FPS
Color space : YUV
Chroma subsampling : 4:2:0
Bit depth : 8 bits
Scan type : Interlaced
Scan type, store method : Separated fields
Scan order : Top Field First
Bits/(Pixel*Frame) : 0.309
Stream size : 476 MiB (94%)
IrisFNumber : 1.000000

Audio
ID : 4352 (0x1100)
Menu ID : 1 (0x1)
Format : AC-3
Format/Info : Audio Coding 3
Commercial name : Dolby Digital
Codec ID : 129
Duration : 4 min 8 s
Bit rate mode : Constant
Bit rate : 256 kb/s
Channel(s) : 2 channels
Channel layout : L R
Sampling rate : 48.0 kHz
Frame rate : 31.250 FPS (1536 SPF)
Compression mode : Lossy
Delay relative to video : -80 ms
Stream size : 7.57 MiB (2%)
Service kind : Complete Main

Text
ID : 4608 (0x1200)
Menu ID : 1 (0x1)
Format : PGS
Codec ID : 144
Duration : 4 min 7 s
Delay relative to video : -80 ms

Moon : Nikon D3200 + PARAGON f/8 500mm f72 + SIGMA TELEMAC VARIO 2X-3X FHD 1080 25p



Moon 12/OCT/2019
Camera : Nikon D3200 in manual , shutter 1/300, iso 200
Lens: PARAGON f/8 500mm f72 T2 - @ f/11 T2
Teleconverter : SIGMA TELEMAC VARIO 2X 2.5X 3X  m42
Video  test 1920 1080 25p
1:8 f= 500mm


Complete name :DCIM\122D3200\DSC_8119.MOV
Format : MPEG-4
Format profile : QuickTime
Codec ID : qt 2007.09 (qt /niko)
File size : 532 MiB
Duration : 3 min 27 s
Overall bit rate : 21.5 Mb/s
Encoded date : UTC 2019-10-12 00:21:29
NCDT : NCTG

Video
ID : 1
Format : AVC
Format/Info : Advanced Video Codec
Format profile : High@L4
Format settings : CABAC / 2 Ref Frames
Format settings, CABAC : Yes
Format settings, Reference frames : 2 frames
Format settings, GOP : M=3, N=12
Codec ID : avc1
Codec ID/Info : Advanced Video Coding
Duration : 3 min 27 s
Bit rate : 20.0 Mb/s
Width : 1 920 pixels
Height : 1 080 pixels
Display aspect ratio : 16:9
Frame rate mode : Constant
Frame rate : 25.000 FPS
Color space : YUV
Chroma subsampling : 4:2:0
Bit depth : 8 bits
Scan type : Progressive
Bits/(Pixel*Frame) : 0.385
Stream size : 494 MiB (93%)
Language : English
Encoded date : UTC 2019-10-12 00:21:29
Color range : Full
Color primaries : BT.709
transfer_characteristics_Original : BT.470 System M
Matrix coefficients : BT.601
Codec configuration box : avcC

Audio
ID : 2
Format : PCM
Format settings : Little / Signed
Codec ID : sowt
Duration : 3 min 27 s
Bit rate mode : Constant
Bit rate : 1 536 kb/s
Channel(s) : 2 channels
Channel layout : L R
Sampling rate : 48.0 kHz
Bit depth : 16 bits
Stream size : 38.0 MiB (7%)
Language : English
Encoded date : UTC 2019-10-12 00:21:29

Moon : Nikon D3200 + PARAGON f/8 500mm f72 FHD 1080 25p




Moon 12/OCT/2019
Camera : Nikon D3200 in manual , shutter 1/500, iso 200
Lens: PARAGON f/8 500mm f72 T2 - @ f/11 T2
Video  test 1920 1080 25p 19.3 Mb/s
1:8 f= 500mm


Complete name : DCIM\122D3200\DSC_8120.MOV
Format : MPEG-4
Format profile : QuickTime
Codec ID : qt 2007.09 (qt /niko)
File size : 759 MiB
Duration : 5 min 5 s
Overall bit rate : 20.9 Mb/s
Encoded date : UTC 2019-10-12 00:28:36
NCDT : NCTG

Video
ID : 1
Format : AVC
Format/Info : Advanced Video Codec
Format profile : High@L4
Format settings : CABAC / 2 Ref Frames
Format settings, CABAC : Yes
Format settings, Reference frames : 2 frames
Format settings, GOP : M=3, N=12
Codec ID : avc1
Codec ID/Info : Advanced Video Coding
Duration : 5 min 5 s
Bit rate : 19.3 Mb/s
Width : 1 920 pixels
Height : 1 080 pixels
Display aspect ratio : 16:9
Frame rate mode : Constant
Frame rate : 25.000 FPS
Color space : YUV
Chroma subsampling : 4:2:0
Bit depth : 8 bits
Scan type : Progressive
Bits/(Pixel*Frame) : 0.373
Stream size : 703 MiB (93%)
Language : English
Encoded date : UTC 2019-10-12 00:28:36
Color range : Full
Color primaries : BT.709
transfer_characteristics_Original : BT.470 System M
Matrix coefficients : BT.601
Codec configuration box : avcC

Audio
ID : 2
Format : PCM
Format settings : Little / Signed
Codec ID : sowt
Duration : 5 min 5 s
Bit rate mode : Constant
Bit rate : 1 536 kb/s
Channel(s) : 2 channels
Channel layout : L R
Sampling rate : 48.0 kHz
Bit depth : 16 bits
Stream size : 55.9 MiB (7%)
Language : English
Encoded date : UTC 2019-1

Full moon Olympus OM-D E-M10 Crop Sensor - PARAGON f/8 500mm f72 T2




Full moon 14/9/2019
Camera : Olympus OM-D E-M10 in manual , shutter 1/1000, iso 200. Crop Sensor
Lens: PARAGON f/8 500mm f72 T2 - @ f/11
video  test #002 1920 1080 30p
1:8 f= 500mm




Complete name : DCIM\105OLYMP\P9140511.MOV
Format : MPEG-4
Format profile : QuickTime
Codec ID : qt 2011.07 (qt )
File size : 524 MiB
Duration : 3 min 40 s
Overall bit rate : 19.9 Mb/s
Encoded date : UTC 2019-09-14 01:31:48
Tagged date : UTC 2019-09-14 01:31:48
TAGS : 8"R

Video
ID : 1
Format : AVC
Format/Info : Advanced Video Codec
Format profile : High@L4.1
Format settings : 2 Ref Frames
Format settings, CABAC : No
Format settings, Reference frames : 2 frames
Format settings, GOP : M=3, N=8
Codec ID : avc1
Codec ID/Info : Advanced Video Coding
Duration : 3 min 40 s
Bit rate : 18.3 Mb/s
Width : 1 920 pixels
Height : 1 080 pixels
Display aspect ratio : 16:9
Frame rate mode : Constant
Frame rate : 29.970 (30000/1001) FPS
Color space : YUV
Chroma subsampling : 4:2:0
Bit depth : 8 bits
Scan type : Progressive
Bits/(Pixel*Frame) : 0.295
Stream size : 483 MiB (92%)
Language : Japanese
Encoded date : UTC 2019-09-14 01:31:48
Tagged date : UTC 2019-09-14 01:31:48
Color range : Full
Color primaries : BT.601 NTSC
Transfer characteristics : BT.601
Matrix coefficients : BT.601
Menus : 0
Codec configuration box : avcC

Audio
ID : 2
Format : PCM
Format settings : Little / Signed
Codec ID : sowt
Duration : 3 min 40 s
Source duration : 3 min 40 s
Bit rate mode : Constant
Bit rate : 1 536 kb/s
Channel(s) : 2 channels
Channel layout : L R
Sampling rate : 48.0 kHz
Bit depth : 16 bits
Stream size : 40.4 MiB (8%)
Source stream size : 40.4 MiB (8%)
Language : Japanese
Encoded date : UTC 2019-09-14 01:31:48

Full moon Olympus OM-D E-M10 - PARAGON f/8 500mm f72 T2



Full moon 14/9/2019
Camera : Olympus OM-D E-M10 in manual , shutter 1/100, iso 250.
Lens: PARAGON f/8 500mm f72 T2 - @ f/11
video  test #002 1920 1080 30p
1:8 f= 500mm


Complete name : DCIM\105OLYMP\P9140470.MOV
Format : MPEG-4
Format profile : QuickTime
Codec ID : qt 2011.07 (qt )
File size : 766 MiB
Duration : 9 min 36 s
Overall bit rate : 11.2 Mb/s
Encoded date : UTC 2019-09-14 01:05:44

TAGS : 8"R

Video
ID : 1
Format : AVC
Format/Info : Advanced Video Codec
Format profile : High@L4.1
Format settings : 2 Ref Frames
Format settings, CABAC : No
Format settings, Reference frames : 2 frames
Format settings, GOP : M=3, N=8
Codec ID : avc1
Codec ID/Info : Advanced Video Coding
Duration : 9 min 36 s
Bit rate : 9 610 kb/s
Width : 1 920 pixels
Height : 1 080 pixels
Display aspect ratio : 16:9
Frame rate mode : Constant
Frame rate : 29.970 (30000/1001) FPS
Color space : YUV
Chroma subsampling : 4:2:0
Bit depth : 8 bits
Scan type : Progressive
Bits/(Pixel*Frame) : 0.155
Stream size : 660 MiB (86%)
Language : Japanese
Encoded date : UTC 2019-09-14 01:05:44
Tagged date : UTC 2019-09-14 01:05:44
Color range : Full
Color primaries : BT.601 NTSC
Transfer characteristics : BT.601
Matrix coefficients : BT.601
Menus : 0
Codec configuration box : avcC

Audio
ID : 2
Format : PCM
Format settings : Little / Signed
Codec ID : sowt
Duration : 9 min 36 s
Source duration : 9 min 36 s
Bit rate mode : Constant
Bit rate : 1 536 kb/s
Channel(s) : 2 channels
Channel layout : L R
Sampling rate : 48.0 kHz
Bit depth : 16 bits
Stream size : 105 MiB (14%)
Source stream size : 105 MiB (14%)
Language : Japanese
Encoded date : UTC 2019-09-14 01:05:44

Full moon Nikon 1 J1 - PARAGON f/8 500mm f72 T2



Full moon 14/9/2019
Camera : Nikon 1 J1 in manual , shutter100, iso 100.
Lens: PARAGON f/8 500mm f72 T2 - @ f/11
video  test #002 1920 1080 60i
1:8 f= 500mm



Complete name : DCIM\116NC1J1\DSC_1781.MOV
Format : MPEG-4
Format profile : QuickTime
Codec ID : qt 2007.09 (qt /niko)
File size : 171 MiB
Duration : 7 min 37 s
Overall bit rate mode : Variable
Overall bit rate : 3 135 kb/s
Encoded date : UTC 2019-09-14 02:40:30
NCDT : NCTG

Video
ID : 1
Format : AVC
Format/Info : Advanced Video Codec
Format profile : High@L4.1
Format settings : CABAC / 2 Ref Frames
Format settings, CABAC : Yes
Format settings, Reference frames : 2 frames
Codec ID : avc1
Codec ID/Info : Advanced Video Coding
Duration : 7 min 37 s
Bit rate : 3 003 kb/s
Width : 1 920 pixels
Height : 1 080 pixels
Display aspect ratio : 16:9
Frame rate mode : Constant
Frame rate : 59.940 (60000/1001) FPS
Color space : YUV
Chroma subsampling : 4:2:0
Bit depth : 8 bits
Scan type : Interlaced
Scan type, store method : Separated fields
Scan order : Top Field First
Bits/(Pixel*Frame) : 0.024
Stream size : 164 MiB (96%)
Language : English
Encoded date : UTC 2019-09-14 02:40:30

Color range : Full
Transfer characteristics : BT.470 System M
Matrix coefficients : BT.470 System B/G
Codec configuration box : avcC

Audio
ID : 2
Format : AAC LC
Format/Info : Advanced Audio Codec Low Complexity
Codec ID : mp4a-40-2
Duration : 7 min 37 s
Source duration : 7 min 37 s
Bit rate mode : Variable
Bit rate : 128 kb/s
Maximum bit rate : 192 kb/s
Channel(s) : 2 channels
Channel layout : L R
Sampling rate : 48.0 kHz
Frame rate : 46.875 FPS (1024 SPF)
Compression mode : Lossy
Stream size : 6.95 MiB (4%)
Source stream size : 6.95 MiB (4%)
Language : English
Encoded date : UTC 2019-09-14 02:40:30

Popular Posts