Showing posts with label park. Show all posts
Showing posts with label park. Show all posts

Cat in the park Larissa Greece 1080 50fps Canon EOS 250d + Canon Lens EF-S 18-55mm f/3.5-5.6 III




Cat in the park Larissa Greece Camera : Canon EOS 250d Lens : Canon Zoom Lens EF-S 18-55mm f/3.5-5.6 III Mode A Focus MF Canon EOS 250d video test FHD 1080 50fps Complete name : CANON\Canon EOS 250D\MVI_7611.MP4 Format : MPEG-4 Format profile : Base Media / Version 2 Codec ID : mp42 (mp42/avc1/CAEP) File size : 454 MiB Duration : 1 min 3 s Overall bit rate : 60.0 Mb/s Encoded date : UTC 2019-12-03 14:10:46 Tagged date : UTC 2019-12-03 14:10:46 Video ID : 1 Format : AVC Format/Info : Advanced Video Codec Format profile : High@L5.1 Format settings : CABAC / 2 Ref Frames Format settings, CABAC : Yes Format settings, Reference frames : 2 frames Format settings, GOP : M=3, N=24 Codec ID : avc1 Codec ID/Info : Advanced Video Coding Duration : 1 min 3 s Bit rate : 59.7 Mb/s Width : 1 920 pixels Height : 1 080 pixels Display aspect ratio : 16:9 Frame rate mode : Constant Frame rate : 50.000 FPS Color space : YUV Chroma subsampling : 4:2:0 Bit depth : 8 bits Scan type : Progressive Bits/(Pixel*Frame) : 0.576 Stream size : 451 MiB (99%) Language : English Encoded date : UTC 2019-12-03 14:10:46 Tagged date : UTC 2019-12-03 14:10:46 Color range : Full Color primaries : BT.709 Transfer characteristics : BT.709 Matrix coefficients : BT.709 Codec configuration box : avcC Audio ID : 2 Format : AAC LC Format/Info : Advanced Audio Codec Low Complexity Codec ID : mp4a-40-2 Duration : 1 min 3 s Bit rate mode : Constant Bit rate : 256 kb/s Channel(s) : 2 channels Channel layout : L R Sampling rate : 48.0 kHz Frame rate : 46.875 FPS (1024 SPF) Compression mode : Lossy Stream size : 1.91 MiB (0%) Language : English Encoded date : UTC 2019-12-03 14:10:46


Cat in the park Larissa Greece 4K 25fps Canon EOS 250d + Canon Lens EF-S 18-55mm f/3.5-5.6 III





Cat in the park Larissa Greece Camera : Canon EOS 250d Lens : Canon Zoom Lens EF-S 18-55mm f/3.5-5.6 III Mode A Focus MF Canon EOS 250d video test UHD 4K 25fps

V30 A1 UHS-I U3 CLASS10 2:15:47 there was a video test
V30 A1 UHS-I U3 CLASS10
V30 A1 UHS-I U3 CLASS10
V30 A1 UHS-I U3 CLASS10

Complete name : DCIM\101YICAM\MVI_7609.MP4 Format : MPEG-4 Format profile : Base Media / Version 2 Codec ID : mp42 (mp42/avc1/CAEP) File size : 858 MiB Duration : 1 min 0 s Overall bit rate : 119 Mb/s Encoded date : UTC 2019-12-03 14:08:14 Tagged date : UTC 2019-12-03 14:08:14 Video ID : 1 Format : AVC Format/Info : Advanced Video Codec Format profile : High@L5.1 Format settings : 2 Ref Frames Format settings, CABAC : No Format settings, RefFrames : 2 frames Format settings, GOP : M=3, N=12 Codec ID : avc1 Codec ID/Info : Advanced Video Coding Duration : 1 min 0 s Bit rate : 119 Mb/s Width : 3 840 pixels Height : 2 160 pixels Display aspect ratio : 16:9 Frame rate mode : Constant Frame rate : 25.000 FPS Color space : YUV Chroma subsampling : 4:2:0 Bit depth : 8 bits Scan type : Progressive Bits/(Pixel*Frame) : 0.573 Stream size : 856 MiB (100%) Language : English Encoded date : UTC 2019-12-03 14:08:14 Tagged date : UTC 2019-12-03 14:08:14 Color range : Full Color primaries : BT.709 Transfer characteristics : BT.709 Matrix coefficients : BT.709 Codec configuration box : avcC Audio ID : 2 Format : AAC LC Format/Info : Advanced Audio Codec Low Complexity Codec ID : mp4a-40-2 Duration : 1 min 0 s Bit rate mode : Constant Bit rate : 256 kb/s Channel(s) : 2 channels Channel layout : L R Sampling rate : 48.0 kHz Frame rate : 46.875 FPS (1024 SPF) Compression mode : Lossy Stream size : 1.83 MiB (0%) Language : English Encoded date : UTC 2019-12-03 14:08:14

In the park Bench Trees : Xiaomi Yi M1 with Helios-44M-4 58mm f/2 M42 adapted to M4/3 4k




Bench Trees Plants in the park Larissa Greece
Camera : Xiaomi Yi M1 mirrorless Sony IMX269
Lens : Helios-44M-4 58mm f/2 M42 @ f/2
Mode : A ISO 200 EV 0,0
Video Stabilization ON Video 3840x2160 @ 30fps
M42 adapted MFT
Yi M1 M42 adapted video test
M42 adapted M4/3

Complete name : YI M1\VIDEO\PB050117.MP4
Format : MPEG-4
Format profile : Base Media / Version 2
Codec ID : mp42 (mp42/avc1)
File size : 1.07 GiB
Duration : 2 min 0 s
Overall bit rate mode : Variable
Overall bit rate : 76.2 Mb/s
Encoded date : UTC 2019-11-05 14:10:14
Tagged date : UTC 2019-11-05 14:10:14

Video
ID : 1
Format : AVC
Format/Info : Advanced Video Codec
Format profile : High@L5.1
Format settings : 1 Ref Frames
Format settings, CABAC : No
Format settings, Reference frames : 1 frame
Format settings, GOP : M=1, N=15
Codec ID : avc1
Codec ID/Info : Advanced Video Coding
Duration : 2 min 0 s
Bit rate : 76.1 Mb/s
Width : 3 840 pixels
Height : 2 160 pixels
Display aspect ratio : 16:9
Frame rate mode : Constant
Frame rate : 29.970 (30000/1001) FPS
Color space : YUV
Chroma subsampling : 4:2:0
Bit depth : 8 bits
Scan type : Progressive
Bits/(Pixel*Frame) : 0.306
Stream size : 1.06 GiB (100%)
Language : English
Encoded date : UTC 2019-11-05 14:10:14
Tagged date : UTC 2019-11-05 14:10:14
Color range : Full
Color primaries : BT.601 NTSC
Transfer characteristics : BT.709
Matrix coefficients : BT.601
Menus : 3
Codec configuration box : avcC

Audio
ID : 2
Format : AAC LC
Format/Info : Advanced Audio Codec Low Complexity
Codec ID : mp4a-40-2
Duration : 2 min 0 s
Source duration : 2 min 0 s
Bit rate mode : Variable
Bit rate : 128 kb/s
Maximum bit rate : 192 kb/s
Channel(s) : 2 channels
Channel layout : L R
Sampling rate : 48.0 kHz
Frame rate : 46.875 FPS (1024 SPF)
Compression mode : Lossy
Stream size : 1.82 MiB (0%)
Source stream size : 1.82 MiB (0%)
Language : English
Encoded date : UTC 2019-11-05 14:10:14

In the park Trees Blue Sky : Xiaomi Yi M1 with Helios-44M-4 58mm f/2 M42 adapted to M4/3 4k




Blue Sky, Trees in the park Larissa Greece
Camera : Xiaomi Yi M1 mirrorless Sony IMX269
Lens : Helios-44M-4 58mm f/2 M42 @ f/2
Mode : A ISO 200 EV 0,0
Video Stabilization ON Video 3840x2160 @ 30fps
M42 adapted MFT
Yi M1 M42 adapted video test
M42 adapted M4/3

Complete name : YI M1\VIDEO\PB050121.MP4
Format : MPEG-4
Format profile : Base Media / Version 2
Codec ID : mp42 (mp42/avc1)
File size : 923 MiB
Duration : 1 min 40 s
Overall bit rate mode : Variable
Overall bit rate : 77.3 Mb/s
Encoded date : UTC 2019-11-05 14:17:56
Tagged date : UTC 2019-11-05 14:17:56

Video
ID : 1
Format : AVC
Format/Info : Advanced Video Codec
Format profile : High@L5.1
Format settings : 1 Ref Frames
Format settings, CABAC : No
Format settings, Reference frames : 1 frame
Format settings, GOP : M=1, N=15
Codec ID : avc1
Codec ID/Info : Advanced Video Coding
Duration : 1 min 40 s
Bit rate : 77.2 Mb/s
Width : 3 840 pixels
Height : 2 160 pixels
Display aspect ratio : 16:9
Frame rate mode : Constant
Frame rate : 29.970 (30000/1001) FPS
Color space : YUV
Chroma subsampling : 4:2:0
Bit depth : 8 bits
Scan type : Progressive
Bits/(Pixel*Frame) : 0.311
Stream size : 921 MiB (100%)
Language : English
Encoded date : UTC 2019-11-05 14:17:56
Tagged date : UTC 2019-11-05 14:17:56
Color range : Full
Color primaries : BT.601 NTSC
Transfer characteristics : BT.709
Matrix coefficients : BT.601
Menus : 3
Codec configuration box : avcC

Audio
ID : 2
Format : AAC LC
Format/Info : Advanced Audio Codec Low Complexity
Codec ID : mp4a-40-2
Duration : 1 min 40 s
Source duration : 1 min 40 s
Bit rate mode : Variable
Bit rate : 128 kb/s
Maximum bit rate : 192 kb/s
Channel(s) : 2 channels
Channel layout : L R
Sampling rate : 48.0 kHz
Frame rate : 46.875 FPS (1024 SPF)
Compression mode : Lossy
Stream size : 1.52 MiB (0%)
Source stream size : 1.52 MiB (0%)
Language : English
Encoded date : UTC 2019-11-05 14:17:56

In the park Tree Sun flares: Xiaomi Yi M1 with Helios-44M-4 58mm f/2 M42 adapted to M4/3 4k




Tree Sun flares in the park Larissa Greece
Camera : Xiaomi Yi M1 mirrorless Sony IMX269
Lens : Helios-44M-4 58mm f/2 M42 @ f/2
Mode : A ISO 200 EV 0,0
Video Stabilization ON Video 3840x2160 @ 30fps
M42 adapted MFT
Yi M1 M42 adapted video test
M42 adapted M4/3

Complete name : YI M1\VIDEO\PB050119.MP4
Format : MPEG-4
Format profile : Base Media / Version 2
Codec ID : mp42 (mp42/avc1)
File size : 898 MiB
Duration : 1 min 39 s
Overall bit rate mode : Variable
Overall bit rate : 76.0 Mb/s
Encoded date : UTC 2019-11-05 14:14:15
Tagged date : UTC 2019-11-05 14:14:15

Video
ID : 1
Format : AVC
Format/Info : Advanced Video Codec
Format profile : High@L5.1
Format settings : 1 Ref Frames
Format settings, CABAC : No
Format settings, Reference frames : 1 frame
Format settings, GOP : M=1, N=15
Codec ID : avc1
Codec ID/Info : Advanced Video Coding
Duration : 1 min 39 s
Bit rate : 75.9 Mb/s
Width : 3 840 pixels
Height : 2 160 pixels
Display aspect ratio : 16:9
Frame rate mode : Constant
Frame rate : 29.970 (30000/1001) FPS
Color space : YUV
Chroma subsampling : 4:2:0
Bit depth : 8 bits
Scan type : Progressive
Bits/(Pixel*Frame) : 0.305
Stream size : 897 MiB (100%)
Language : English
Encoded date : UTC 2019-11-05 14:14:15
Tagged date : UTC 2019-11-05 14:14:15
Color range : Full
Color primaries : BT.601 NTSC
Transfer characteristics : BT.709
Matrix coefficients : BT.601
Menus : 3
Codec configuration box : avcC

Audio
ID : 2
Format : AAC LC
Format/Info : Advanced Audio Codec Low Complexity
Codec ID : mp4a-40-2
Duration : 1 min 39 s
Source duration : 1 min 39 s
Bit rate mode : Variable
Bit rate : 128 kb/s
Maximum bit rate : 192 kb/s
Channel(s) : 2 channels
Channel layout : L R
Sampling rate : 48.0 kHz
Frame rate : 46.875 FPS (1024 SPF)
Compression mode : Lossy
Stream size : 1.50 MiB (0%)
Source stream size : 1.50 MiB (0%)
Language : English
Encoded date : UTC 2019-11-05 14:14:15

In the park Βench : Xiaomi Yi M1 with Helios-44M-4 58mm f/2 M42 adapted to M4/3 4k




Βench in the park Larissa Greece
Camera : Xiaomi Yi M1 mirrorless Sony IMX269
Lens : Helios-44M-4 58mm f/2 M42 @ f/2
Mode : A ISO 200 EV 0,0
Video Stabilization ON Video 3840x2160 @ 30fps
M42 adapted MFT
Yi M1 M42 adapted video test
M42 adapted M4/3

Complete name : YI M1\VIDEO\PB050120.MP4
Format : MPEG-4
Format profile : Base Media / Version 2
Codec ID : mp42 (mp42/avc1)
File size : 800 MiB
Duration : 1 min 28 s
Overall bit rate mode : Variable
Overall bit rate : 76.2 Mb/s
Encoded date : UTC 2019-11-05 14:16:11
Tagged date : UTC 2019-11-05 14:16:11

Video
ID : 1
Format : AVC
Format/Info : Advanced Video Codec
Format profile : High@L5.1
Format settings : 1 Ref Frames
Format settings, CABAC : No
Format settings, Reference frames : 1 frame
Format settings, GOP : M=1, N=15
Codec ID : avc1
Codec ID/Info : Advanced Video Coding
Duration : 1 min 28 s
Bit rate : 76.0 Mb/s
Width : 3 840 pixels
Height : 2 160 pixels
Display aspect ratio : 16:9
Frame rate mode : Constant
Frame rate : 29.970 (30000/1001) FPS
Color space : YUV
Chroma subsampling : 4:2:0
Bit depth : 8 bits
Scan type : Progressive
Bits/(Pixel*Frame) : 0.306
Stream size : 798 MiB (100%)
Language : English
Encoded date : UTC 2019-11-05 14:16:11
Tagged date : UTC 2019-11-05 14:16:11
Color range : Full
Color primaries : BT.601 NTSC
Transfer characteristics : BT.709
Matrix coefficients : BT.601
Menus : 3
Codec configuration box : avcC

Audio
ID : 2
Format : AAC LC
Format/Info : Advanced Audio Codec Low Complexity
Codec ID : mp4a-40-2
Duration : 1 min 28 s
Source duration : 1 min 28 s
Bit rate mode : Variable
Bit rate : 128 kb/s
Maximum bit rate : 192 kb/s
Channel(s) : 2 channels
Channel layout : L R
Sampling rate : 48.0 kHz
Frame rate : 46.875 FPS (1024 SPF)
Compression mode : Lossy
Stream size : 1.34 MiB (0%)
Source stream size : 1.34 MiB (0%)
Language : English
Encoded date : UTC 2019-11-05 14:16:11

In the park Swings : Xiaomi Yi M1 with Helios-44M-4 58mm f/2 M42 adapted to M4/3 4k




Swings in the park Larissa Greece
Camera : Xiaomi Yi M1 mirrorless Sony IMX269
Lens : Helios-44M-4 58mm f/2 M42 @ f/2
Mode : A ISO 200 EV 0,0
Video Stabilization ON Video 3840x2160 @ 30fps
M42 adapted MFT
Yi M1 M42 adapted video test
M42 adapted M4/3

Complete name : YI M1\VIDEO\PB050118.MP4
Format : MPEG-4
Format profile : Base Media / Version 2
Codec ID : mp42 (mp42/avc1)
File size : 635 MiB
Duration : 1 min 10 s
Overall bit rate mode : Variable
Overall bit rate : 76.1 Mb/s
Encoded date : UTC 2019-11-05 14:12:43
Tagged date : UTC 2019-11-05 14:12:43

Video
ID : 1
Format : AVC
Format/Info : Advanced Video Codec
Format profile : High@L5.1
Format settings : 1 Ref Frames
Format settings, CABAC : No
Format settings, Reference frames : 1 frame
Format settings, GOP : M=1, N=15
Codec ID : avc1
Codec ID/Info : Advanced Video Coding
Duration : 1 min 10 s
Bit rate : 75.9 Mb/s
Width : 3 840 pixels
Height : 2 160 pixels
Display aspect ratio : 16:9
Frame rate mode : Constant
Frame rate : 29.970 (30000/1001) FPS
Color space : YUV
Chroma subsampling : 4:2:0
Bit depth : 8 bits
Scan type : Progressive
Bits/(Pixel*Frame) : 0.305
Stream size : 634 MiB (100%)
Language : English
Encoded date : UTC 2019-11-05 14:12:43
Tagged date : UTC 2019-11-05 14:12:43
Color range : Full
Color primaries : BT.601 NTSC
Transfer characteristics : BT.709
Matrix coefficients : BT.601
Menus : 3
Codec configuration box : avcC

Audio
ID : 2
Format : AAC LC
Format/Info : Advanced Audio Codec Low Complexity
Codec ID : mp4a-40-2
Duration : 1 min 10 s
Source duration : 1 min 10 s
Bit rate mode : Variable
Bit rate : 128 kb/s
Maximum bit rate : 192 kb/s
Channel(s) : 2 channels
Channel layout : L R
Sampling rate : 48.0 kHz
Frame rate : 46.875 FPS (1024 SPF)
Compression mode : Lossy
Stream size : 1.06 MiB (0%)
Source stream size : 1.06 MiB (0%)
Language : English
Encoded date : UTC 2019-11-05 14:12:43

In the park Plant Tree : Xiaomi Yi M1 with Helios-44M-4 58mm f/2 M42 adapted to M4/3 4k




Plant Tree in the park Larissa Greece
Camera : Xiaomi Yi M1 mirrorless Sony IMX269
Lens : Helios-44M-4 58mm f/2 M42 @ f/2
Mode : A ISO 200 EV 0,0
Video Stabilization ON Video 3840x2160 @ 30fps
M42 adapted MFT
Yi M1 M42 adapted video test
M42 adapted M4/3

Complete name : H:\PHOTO\XIAOMI\YI M1\VIDEO\PB050116.MP4
Format : MPEG-4
Format profile : Base Media / Version 2
Codec ID : mp42 (mp42/avc1)
File size : 899 MiB
Duration : 1 min 39 s
Overall bit rate mode : Variable
Overall bit rate : 76.1 Mb/s
Encoded date : UTC 2019-11-05 14:08:18
Tagged date : UTC 2019-11-05 14:08:18

Video
ID : 1
Format : AVC
Format/Info : Advanced Video Codec
Format profile : High@L5.1
Format settings : 1 Ref Frames
Format settings, CABAC : No
Format settings, Reference frames : 1 frame
Format settings, GOP : M=1, N=15
Codec ID : avc1
Codec ID/Info : Advanced Video Coding
Duration : 1 min 39 s
Bit rate : 75.9 Mb/s
Width : 3 840 pixels
Height : 2 160 pixels
Display aspect ratio : 16:9
Frame rate mode : Constant
Frame rate : 29.970 (30000/1001) FPS
Color space : YUV
Chroma subsampling : 4:2:0
Bit depth : 8 bits
Scan type : Progressive
Bits/(Pixel*Frame) : 0.305
Stream size : 897 MiB (100%)
Language : English
Encoded date : UTC 2019-11-05 14:08:18
Tagged date : UTC 2019-11-05 14:08:18
Color range : Full
Color primaries : BT.601 NTSC
Transfer characteristics : BT.709
Matrix coefficients : BT.601
Menus : 3
Codec configuration box : avcC

Audio
ID : 2
Format : AAC LC
Format/Info : Advanced Audio Codec Low Complexity
Codec ID : mp4a-40-2
Duration : 1 min 39 s
Source duration : 1 min 39 s
Bit rate mode : Variable
Bit rate : 128 kb/s
Maximum bit rate : 192 kb/s
Channel(s) : 2 channels
Channel layout : L R
Sampling rate : 48.0 kHz
Frame rate : 46.875 FPS (1024 SPF)
Compression mode : Lossy
Stream size : 1.50 MiB (0%)
Source stream size : 1.50 MiB (0%)
Language : English
Encoded date : UTC 2019-11-05 14:08:18

In the park Cat : Xiaomi Yi M1 with Helios-44M-4 58mm f/2 M42 adapted to M4/3 4k




Cat in the park Larissa Greece
Camera : Xiaomi Yi M1 mirrorless Sony IMX269
Lens : Helios-44M-4 58mm f/2 M42 @ f/2
Mode : A ISO 200 EV 0,0
Video Stabilization ON Video 3840x2160 @ 30fps
M42 adapted MFT
Yi M1 M42 adapted video test
M42 adapted M4/3

Complete name : YI M1\VIDEO\PB050115.MP4
Format : MPEG-4
Format profile : Base Media / Version 2
Codec ID : mp42 (mp42/avc1)
File size : 645 MiB
Duration : 1 min 11 s
Overall bit rate mode : Variable
Overall bit rate : 76.2 Mb/s
Encoded date : UTC 2019-11-05 14:06:52
Tagged date : UTC 2019-11-05 14:06:52

Video
ID : 1
Format : AVC
Format/Info : Advanced Video Codec
Format profile : High@L5.1
Format settings : 1 Ref Frames
Format settings, CABAC : No
Format settings, Reference frames : 1 frame
Format settings, GOP : M=1, N=15
Codec ID : avc1
Codec ID/Info : Advanced Video Coding
Duration : 1 min 11 s
Bit rate : 76.0 Mb/s
Width : 3 840 pixels
Height : 2 160 pixels
Display aspect ratio : 16:9
Frame rate mode : Constant
Frame rate : 29.970 (30000/1001) FPS
Color space : YUV
Chroma subsampling : 4:2:0
Bit depth : 8 bits
Scan type : Progressive
Bits/(Pixel*Frame) : 0.306
Stream size : 644 MiB (100%)
Language : English
Encoded date : UTC 2019-11-05 14:06:52
Tagged date : UTC 2019-11-05 14:06:52
Color range : Full
Color primaries : BT.601 NTSC
Transfer characteristics : BT.709
Matrix coefficients : BT.601
Menus : 3
Codec configuration box : avcC

Audio
ID : 2
Format : AAC LC
Format/Info : Advanced Audio Codec Low Complexity
Codec ID : mp4a-40-2
Duration : 1 min 11 s
Source duration : 1 min 11 s
Bit rate mode : Variable
Bit rate : 128 kb/s
Maximum bit rate : 192 kb/s
Channel(s) : 2 channels
Channel layout : L R
Sampling rate : 48.0 kHz
Frame rate : 46.875 FPS (1024 SPF)
Compression mode : Lossy
Stream size : 1.08 MiB (0%)
Source stream size : 1.08 MiB (0%)
Language : English
Encoded date : UTC 2019-11-05 14:06:52

In the park Plant : Xiaomi Yi M1 with Helios-44M-4 58mm f/2 M42 adapted to M4/3 4k




Plant in the park Larissa Greece
Camera : Xiaomi Yi M1 mirrorless Sony IMX269
Lens : Helios-44M-4 58mm f/2 M42 @ f/2
Mode : A ISO 200 EV 0,0
Video Stabilization ON Video 3840x2160 @ 30fps
M42 adapted MFT
Yi M1 M42 adapted video test
M42 adapted M4/3

Complete name : YI M1\VIDEO\PB050114.MP4
Format : MPEG-4
Format profile : Base Media / Version 2
Codec ID : mp42 (mp42/avc1)
File size : 572 MiB
Duration : 1 min 3 s
Overall bit rate mode : Variable
Overall bit rate : 76.0 Mb/s
Encoded date : UTC 2019-11-05 14:05:15
Tagged date : UTC 2019-11-05 14:05:15

Video
ID : 1
Format : AVC
Format/Info : Advanced Video Codec
Format profile : High@L5.1
Format settings : 1 Ref Frames
Format settings, CABAC : No
Format settings, Reference frames : 1 frame
Format settings, GOP : M=1, N=15
Codec ID : avc1
Codec ID/Info : Advanced Video Coding
Duration : 1 min 3 s
Bit rate : 75.9 Mb/s
Width : 3 840 pixels
Height : 2 160 pixels
Display aspect ratio : 16:9
Frame rate mode : Constant
Frame rate : 29.970 (30000/1001) FPS
Color space : YUV
Chroma subsampling : 4:2:0
Bit depth : 8 bits
Scan type : Progressive
Bits/(Pixel*Frame) : 0.305
Stream size : 571 MiB (100%)
Language : English
Encoded date : UTC 2019-11-05 14:05:15
Tagged date : UTC 2019-11-05 14:05:15
Color range : Full
Color primaries : BT.601 NTSC
Transfer characteristics : BT.709
Matrix coefficients : BT.601
Menus : 3
Codec configuration box : avcC

Audio
ID : 2
Format : AAC LC
Format/Info : Advanced Audio Codec Low Complexity
Codec ID : mp4a-40-2
Duration : 1 min 3 s
Source duration : 1 min 3 s
Bit rate mode : Variable
Bit rate : 128 kb/s
Maximum bit rate : 192 kb/s
Channel(s) : 2 channels
Channel layout : L R
Sampling rate : 48.0 kHz
Frame rate : 46.875 FPS (1024 SPF)
Compression mode : Lossy
Stream size : 980 KiB (0%)
Source stream size : 981 KiB (0%)
Language : English
Encoded date : UTC 2019-11-05 14:05:15

Παρκο Χατζηχαλαρ Λαρισα Chatzichalar park - Larissa - Greece ( Sanyo Xacti VPC-CG100 ) Video test #005




Chatzichalar park
 Larissa - Greece
Sanyo Xacti VPC-CG100
Video test #005
Video Stabilazer OFF
Exposure A Aperture - f/3.5 - Shuter auto ( 1/30 ~ 1/1000 )
Focus Auto - ISO 50
Παρκο Χατζηχαλαρ Λαρισα

Complete name : DCIM\100SANYO\SANY0264.MP4
Format : MPEG-4
Format profile : Base Media / Version 2
Codec ID : mp42 (mp42/avc1)
File size : 184 MiB
Duration : 1 min 39 s
Overall bit rate mode : Variable
Overall bit rate : 15.6 Mb/s
Movie_More : SANYO DIGITAL CAMERA CG100
Encoded date : UTC 2019-09-30 17:29:24
Tagged date : UTC 2019-09-30 17:29:24
Origin : Digital Camera
TAGS : O DIGITAL CAMERA

Video
ID : 1
Format : AVC
Format/Info : Advanced Video Codec
Format profile : Baseline@L4
Format settings : 2 Ref Frames
Format settings, CABAC : No
Format settings, Reference frames : 2 frames
Format settings, GOP : M=1, N=30
Codec ID : avc1
Codec ID/Info : Advanced Video Coding
Duration : 1 min 39 s
Bit rate : 15.2 Mb/s
Width : 1 920 pixels
Height : 1 080 pixels
Display aspect ratio : 16:9
Frame rate mode : Constant
Frame rate : 29.970 (30000/1001) FPS
Color space : YUV
Chroma subsampling : 4:2:0
Bit depth : 8 bits
Scan type : Progressive
Bits/(Pixel*Frame) : 0.244
Stream size : 179 MiB (97%)
Language : English
Encoded date : UTC 2019-09-30 17:29:24

Color range : Full
Color primaries : BT.709
Transfer characteristics : BT.709
Matrix coefficients : BT.709
Codec configuration box : avcC

Audio
ID : 2
Format : AAC LC
Format/Info : Advanced Audio Codec Low Complexity
Codec ID : mp4a-40-2
Duration : 1 min 39 s
Source duration : 1 min 39 s
Bit rate mode : Variable
Bit rate : 256 kb/s
Maximum bit rate : 192 kb/s
Channel(s) : 2 channels
Channel layout : L R
Sampling rate : 48.0 kHz
Frame rate : 46.875 FPS (1024 SPF)
Compression mode : Lossy
Stream size : 3.01 MiB (2%)
Source stream size : 3.01 MiB (2%)
Language : English
Encoded date : UTC 2019-09-30 17:29:24

Genova città deserta Seconda parte rimaniamo a casa Μένουμε Σπίτι και εμείς

rimaniamo a casa Seconda parte Genova città deserta #StayHome Γένοβα δεύτερο μέρος Μένουμε Σπίτι και εμείς 2nd Part desert Genoa Geno...