Showing posts with label Jupiter-37A 135mm f3.5. Show all posts
Showing posts with label Jupiter-37A 135mm f3.5. Show all posts

Sunset : Pentax Q video test with Jupiter-37A 135mm f3.5 M42 adapted to Pq 1080 30fps 758mm @ 35mm





Hard to handle by hand / Sunset Larissa Greece Camera : Pentax Q 12.4 Mp 1/2.3-inch CMOS Crop factor 5.62 Lens : Jupiter-37A 135mm f3.5 Ø52 M42 @ f/8 758mm equivalent 35mm Mode : M ISO 125 EV 0,0 Shutter 1/30 Video Stabilization OFF Video 1920x1080 @ 30fps Complete name : DCIM\125_2312\IMGP8617.MOV Format : MPEG-4 Format profile : QuickTime Codec ID : qt 2007.09 File size : 186 MiB Duration : 1 min 51 s Overall bit rate mode : Variable Overall bit rate : 14.1 Mb/s thmb : AX Video ID : 1 Format : AVC Format/Info : Advanced Video Codec Format profile : Main@L4 Format settings : CABAC / 2 Ref Frames Format settings, CABAC : Yes Format settings, Reference frames : 2 frames Codec ID : avc1 Codec ID/Info : Advanced Video Coding Duration : 1 min 51 s Source duration : 1 min 51 s Bit rate mode : Variable Bit rate : 12.5 Mb/s Maximum bit rate : 20.0 Mb/s Width : 1 920 pixels Height : 1 080 pixels Display aspect ratio : 16:9 Frame rate mode : Constant Frame rate : 29.970 (30000/1001) FPS Color space : YUV Chroma subsampling : 4:2:0 Bit depth : 8 bits Scan type : Progressive Bits/(Pixel*Frame) : 0.201 Stream size : 166 MiB (89%) Source stream size : 166 MiB (89%) Language : English mdhd_Duration : 111103 Codec configuration box : avcC Audio ID : 2 Format : PCM Format settings : Little / Signed Codec ID : sowt Duration : 1 min 51 s Bit rate mode : Constant Bit rate : 1 536 kb/s Channel(s) : 2 channels Channel layout : L R Sampling rate : 48.0 kHz Bit depth : 16 bits Stream size : 20.3 MiB (11%) Language : English mdhd_Duration : 111103

Flowers 3: Panasonic Lumix DMC-GX80 4k UHD Jupiter-37A 135mm f3.5




Flowers
Panasonic Lumix DMC-GX80 4k UHD 25fps   94.2 Mb/s
Jupiter-37A 135mm f3.5
Video Test 003

Complete name : E:\DCIM\108_PANA\P1080337.MP4
Format : MPEG-4
Format profile : Base Media / Version 2
Codec ID : mp42 (mp42/avc1)
File size : 360 MiB
Duration : 32 s 160 ms
Overall bit rate mode : Variable
Overall bit rate : 93.9 Mb/s
Encoded date : UTC 2019-05-01 19:40:17

PANA : Ê

Video
ID : 1
Format : AVC
Format/Info : Advanced Video Codec
Format profile : High@L5.1
Format settings : CABAC / 2 Ref Frames
Format settings, CABAC : Yes
Format settings, Reference frames : 2 frames
Codec ID : avc1
Codec ID/Info : Advanced Video Coding
Duration : 32 s 160 ms
Bit rate mode : Variable
Bit rate : 93.7 Mb/s
Maximum bit rate : 106 Mb/s
Width : 3 840 pixels
Height : 2 160 pixels
Display aspect ratio : 16:9
Frame rate mode : Constant
Frame rate : 25.000 FPS
Color space : YUV
Chroma subsampling : 4:2:0
Bit depth : 8 bits
Scan type : Progressive
Bits/(Pixel*Frame) : 0.452
Stream size : 359 MiB (100%)
Encoded date : UTC 2019-05-01 19:40:17

Color range : Limited
Color primaries : BT.709
Transfer characteristics : BT.709
Matrix coefficients : BT.709
Codec configuration box : avcC

Audio
ID : 2
Format : AAC LC
Format/Info : Advanced Audio Codec Low Complexity
Codec ID : mp4a-40-2
Duration : 32 s 160 ms
Source duration : 32 s 213 ms
Bit rate mode : Constant
Bit rate : 128 kb/s
Channel(s) : 2 channels
Channel layout : L R
Sampling rate : 48.0 kHz
Frame rate : 46.875 FPS (1024 SPF)
Compression mode : Lossy
Stream size : 492 KiB (0%)
Source stream size : 492 KiB (0%)
Encoded date : UTC 2019-05-01 19:40:17

Flowers 2: Panasonic Lumix DMC-GX80 4k UHD Jupiter-37A 135mm f3.5




Flowers
Panasonic Lumix DMC-GX80 4k UHD 25fps   94.2 Mb/s
Jupiter-37A 135mm f3.5 at f4
Video Test 002

Complete name : E:\DCIM\108_PANA\P1080404.MP4
Format : MPEG-4
Format profile : Base Media / Version 2
Codec ID : mp42 (mp42/avc1)
File size : 354 MiB
Duration : 31 s 680 ms
Overall bit rate mode : Variable
Overall bit rate : 93.7 Mb/s
Encoded date : UTC 2019-05-02 10:56:14

PANA : Ê

Video
ID : 1
Format : AVC
Format/Info : Advanced Video Codec
Format profile : High@L5.1
Format settings : CABAC / 2 Ref Frames
Format settings, CABAC : Yes
Format settings, Reference frames : 2 frames
Codec ID : avc1
Codec ID/Info : Advanced Video Coding
Duration : 31 s 680 ms
Bit rate mode : Variable
Bit rate : 93.5 Mb/s
Maximum bit rate : 106 Mb/s
Width : 3 840 pixels
Height : 2 160 pixels
Display aspect ratio : 16:9
Frame rate mode : Constant
Frame rate : 25.000 FPS
Color space : YUV
Chroma subsampling : 4:2:0
Bit depth : 8 bits
Scan type : Progressive
Bits/(Pixel*Frame) : 0.451
Stream size : 353 MiB (100%)
Encoded date : UTC 2019-05-02 10:56:14

Color range : Limited
Color primaries : BT.709
Transfer characteristics : BT.709
Matrix coefficients : BT.709
Codec configuration box : avcC

Audio
ID : 2
Format : AAC LC
Format/Info : Advanced Audio Codec Low Complexity
Codec ID : mp4a-40-2
Duration : 31 s 680 ms
Source duration : 31 s 723 ms
Bit rate mode : Constant
Bit rate : 128 kb/s
Channel(s) : 2 channels
Channel layout : L R
Sampling rate : 48.0 kHz
Frame rate : 46.875 FPS (1024 SPF)
Compression mode : Lossy
Stream size : 484 KiB (0%)
Source stream size : 485 KiB (0%)
Encoded date : UTC 2019-05-02 10:56:14

Flowers 1: Panasonic Lumix DMC-GX80 4k UHD Jupiter-37A 135mm f3.5




Flowers
Panasonic Lumix DMC-GX80 4k UHD 25fps   94.2 Mb/s
Jupiter-37A 135mm f3.5 at f4
Video Test 001

Complete name : DCIM\108_PANA\P1080403.MP4
Format : MPEG-4
Format profile : Base Media / Version 2
Codec ID : mp42 (mp42/avc1)
File size : 361 MiB
Duration : 32 s 160 ms
Overall bit rate mode : Variable
Overall bit rate : 94.2 Mb/s
Encoded date : UTC 2019-05-02 10:54:49

PANA : Ê

Video
ID : 1
Format : AVC
Format/Info : Advanced Video Codec
Format profile : High@L5.1
Format settings : CABAC / 2 Ref Frames
Format settings, CABAC : Yes
Format settings, Reference frames : 2 frames
Codec ID : avc1
Codec ID/Info : Advanced Video Coding
Duration : 32 s 160 ms
Bit rate mode : Variable
Bit rate : 94.0 Mb/s
Maximum bit rate : 106 Mb/s
Width : 3 840 pixels
Height : 2 160 pixels
Display aspect ratio : 16:9
Frame rate mode : Constant
Frame rate : 25.000 FPS
Color space : YUV
Chroma subsampling : 4:2:0
Bit depth : 8 bits
Scan type : Progressive
Bits/(Pixel*Frame) : 0.453
Stream size : 360 MiB (100%)
Encoded date : UTC 2019-05-02 10:54:49

Color range : Limited
Color primaries : BT.709
Transfer characteristics : BT.709
Matrix coefficients : BT.709
Codec configuration box : avcC

Audio
ID : 2
Format : AAC LC
Format/Info : Advanced Audio Codec Low Complexity
Codec ID : mp4a-40-2
Duration : 32 s 160 ms
Source duration : 32 s 213 ms
Bit rate mode : Constant
Bit rate : 128 kb/s
Channel(s) : 2 channels
Channel layout : L R
Sampling rate : 48.0 kHz
Frame rate : 46.875 FPS (1024 SPF)
Compression mode : Lossy
Stream size : 492 KiB (0%)
Source stream size : 492 KiB (0%)
Encoded date : UTC 2019-05-02 10:54:49

Genova città deserta Seconda parte rimaniamo a casa Μένουμε Σπίτι και εμείς

rimaniamo a casa Seconda parte Genova città deserta #StayHome Γένοβα δεύτερο μέρος Μένουμε Σπίτι και εμείς 2nd Part desert Genoa Geno...