Showing posts with label Helios. Show all posts
Showing posts with label Helios. Show all posts

Sunset birds Olympus PEN E-PL3 with Helios-44M-7 58mm f/2 Ø52 M42 to m4/3 @ f/4




Sunset birds Camera : Olympus PEN E-PL3 in mode A auto iso 400-800 limit stabilazer IS off is defective one motor focus to the clouds Lens: Helios-44M-7 58mm f/2 Ø52 M42 - @ f/4 video test 1920 1080 30p Don’t forget to click the bell to turn on post notifications! Nikolaos Instagram: https://www.instagram.com/sakellarisnikolaos/ Twitter: https://twitter.com/SakellarisNiko Facebook: https://www.facebook.com/nikolaos.sakellaris/ Blog: https://video-photo-blog.blogspot.com/ 1:2 f= 58mm with monopod K&F Concept from KF2624L tripod KF09.050 (1st time used) Complete name : AVCHD\BDMV\STREAM\00007.MTS Format : BDAV Format/Info : Blu-ray Video File size : 93.7 MiB Duration : 1 min 21 s Overall bit rate mode : Variable Overall bit rate : 9 618 kb/s Maximum Overall bit rate : 24.0 Mb/s Video ID : 4113 (0x1011) Menu ID : 1 (0x1) Format : AVC Format/Info : Advanced Video Codec Format profile : High@L4 Format settings : 2 Ref Frames Format settings, CABAC : No Format settings, Reference frames : 2 frames Format settings, GOP : M=1, N=15 Codec ID : 27 Duration : 1 min 21 s Bit rate mode : Variable Bit rate : 9 036 kb/s Maximum bit rate : 22.5 Mb/s Width : 1 920 pixels Height : 1 080 pixels Display aspect ratio : 16:9 Frame rate : 29.970 (30000/1001) FPS Color space : YUV Chroma subsampling : 4:2:0 Bit depth : 8 bits Scan type : Interlaced Scan type, store method : Separated fields Scan order : Top Field First Bits/(Pixel*Frame) : 0.145 Stream size : 87.9 MiB (94%) Audio ID : 4352 (0x1100) Menu ID : 1 (0x1) Format : AC-3 Format/Info : Audio Coding 3 Commercial name : Dolby Digital Codec ID : 129 Duration : 1 min 21 s Bit rate mode : Constant Bit rate : 192 kb/s Channel(s) : 2 channels Channel layout : L R Sampling rate : 48.0 kHz Frame rate : 31.250 FPS (1536 SPF) Compression mode : Lossy Stream size : 1.87 MiB (2%) Service kind : Complete Main

Sunset Clouds Canon 250D video test with Helios-44-2 2/58 M42 adapted to EOS 4K @ 25fps sl3




Sunset Clouds Camera : Canon EOS 250d 4K 25p crop 2.6 @ 4K Lens : Helios-44-2 58mm f/2 Ø52 M42 @ f/2 130mm equivalent 35mm Mode A Iso 800 50mm 4k cropped 2.6x video stabilisation OFF canon sl3 adapted Complete name : Desktop\104PHOTO\MVI_7785.MP4 Format : MPEG-4 Format profile : Base Media / Version 2 Codec ID : mp42 (mp42/avc1/CAEP) File size : 929 MiB Duration : 1 min 5 s Overall bit rate : 119 Mb/s Video ID : 1 Format : AVC Format/Info : Advanced Video Codec Format profile : High@L5.1 Format settings : 2 Ref Frames Format settings, CABAC : No Format settings, RefFrames : 2 frames Format settings, GOP : M=3, N=12 Codec ID : avc1 Codec ID/Info : Advanced Video Coding Duration : 1 min 5 s Bit rate : 119 Mb/s Width : 3 840 pixels Height : 2 160 pixels Display aspect ratio : 16:9 Frame rate mode : Constant Frame rate : 25.000 FPS Color space : YUV Chroma subsampling : 4:2:0 Bit depth : 8 bits Scan type : Progressive Bits/(Pixel*Frame) : 0.573 Stream size : 927 MiB (100%) Language : English Color range : Full Color primaries : BT.709 Transfer characteristics : BT.709 Matrix coefficients : BT.709 Codec configuration box : avcC Audio ID : 2 Format : AAC LC Format/Info : Advanced Audio Codec Low Complexity Codec ID : mp4a-40-2 Duration : 1 min 5 s Bit rate mode : Constant Bit rate : 256 kb/s Channel(s) : 2 channels Channel layout : L R Sampling rate : 48.0 kHz Frame rate : 46.875 FPS (1024 SPF) Compression mode : Lossy Stream size : 1.98 MiB (0%) Language : English

Sunset Clouds star : Samsung NX20 video test with Helios-44-2 2/58 M42 adapted to NX @ 24fps




Sunset Clouds Larissa Greece Camera : Samsung NX20 Crop factor 1.5 Lens : Helios-44-2 58mm f/2 Ø52 M42 @ f/2 75mm equivalent 35mm Mode : A ISO 400 EV 0,0 Video Stabilization No Video 1920x810 @ 24fps Complete name : Desktop\104PHOTO\SAM_4395.MP4 Format : MPEG-4 Format profile : Base Media / Version 2 Codec ID : mp42 (mp42/isom/avc1) File size : 224 MiB Duration : 2 min 50 s Overall bit rate : 11.0 Mb/s Video ID : 1 Format : AVC Format/Info : Advanced Video Codec Format profile : High@L4.1 Format settings : 2 Ref Frames Format settings, CABAC : No Format settings, RefFrames : 2 frames Format settings, GOP : M=1, N=24 Codec ID : avc1 Codec ID/Info : Advanced Video Coding Duration : 2 min 50 s Bit rate : 10.9 Mb/s Width : 1 920 pixels Height : 810 pixels Display aspect ratio : 2.40:1 Frame rate mode : Constant Frame rate : 24.000 FPS Color space : YUV Chroma subsampling : 4:2:0 Bit depth : 8 bits Scan type : Progressive Bits/(Pixel*Frame) : 0.292 Stream size : 221 MiB (99%) Language : English Codec configuration box : avcC Audio ID : 2 Format : AAC LC Format/Info : Advanced Audio Codec Low Complexity Codec ID : mp4a-40-2 Duration : 2 min 50 s Bit rate mode : Constant Bit rate : 128 kb/s Channel(s) : 2 channels Channel layout : L R Sampling rate : 32.0 kHz Frame rate : 31.250 FPS (1024 SPF) Compression mode : Lossy Stream size : 2.58 MiB (1%) Language : English

Half Moon and Clouds : Xiaomi Yi M1 with Helios-44-2 2/58 M42 adapted to M4/3 4k




Half Moon and Clouds Larissa Greece
Camera : Xiaomi Yi M1 mirrorless Sony IMX269
Lens : Helios-44-2 58mm f/2 Ø52 M42 @ f/2
Mode : A ISO 200 EV 0,0
Video Stabilization OFF Video 3840x2160 @ 30fps
M42 adapted MFT
Yi M1 M42 adapted video test
M42 adapted M4/3
Yi M1 M42 video test

Complete name :XIAOMI\YI M1\VIDEO\PB060184.MP4
Format : MPEG-4
Format profile : Base Media / Version 2
Codec ID : mp42 (mp42/avc1)
File size : 599 MiB
Duration : 1 min 6 s
Overall bit rate mode : Variable
Overall bit rate : 76.0 Mb/s
Encoded date : UTC 2019-11-06 17:02:09
Tagged date : UTC 2019-11-06 17:02:09

Video
ID : 1
Format : AVC
Format/Info : Advanced Video Codec
Format profile : High@L5.1
Format settings : 1 Ref Frames
Format settings, CABAC : No
Format settings, Reference frames : 1 frame
Format settings, GOP : M=1, N=15
Codec ID : avc1
Codec ID/Info : Advanced Video Coding
Duration : 1 min 6 s
Bit rate : 75.9 Mb/s
Width : 3 840 pixels
Height : 2 160 pixels
Display aspect ratio : 16:9
Frame rate mode : Constant
Frame rate : 29.970 (30000/1001) FPS
Color space : YUV
Chroma subsampling : 4:2:0
Bit depth : 8 bits
Scan type : Progressive
Bits/(Pixel*Frame) : 0.305
Stream size : 598 MiB (100%)
Language : English
Encoded date : UTC 2019-11-06 17:02:09
Tagged date : UTC 2019-11-06 17:02:09
Color range : Full
Color primaries : BT.601 NTSC
Transfer characteristics : BT.709
Matrix coefficients : BT.601
Menus : 3
Codec configuration box : avcC

Audio
ID : 2
Format : AAC LC
Format/Info : Advanced Audio Codec Low Complexity
Codec ID : mp4a-40-2
Duration : 1 min 6 s
Source duration : 1 min 6 s
Bit rate mode : Variable
Bit rate : 128 kb/s
Maximum bit rate : 192 kb/s
Channel(s) : 2 channels
Channel layout : L R
Sampling rate : 48.0 kHz
Frame rate : 46.875 FPS (1024 SPF)
Compression mode : Lossy
Stream size : 1.00 MiB (0%)
Source stream size : 1.00 MiB (0%)
Language : English
Encoded date : UTC 2019-11-06 17:02:09

Clouds : Xiaomi Yi M1 with Helios-44-2 2/58 M42 adapted to M4/3 4k




Clouds  Blue Sky Larissa Greece
Camera : Xiaomi Yi M1 mirrorless Sony IMX269
Lens : Helios-44-2 58mm f/2 Ø52 M42 @ f/2
Mode : S shutter 50 ISO 800 EV 0,0
Video Stabilization OFF Video 3840x2160 @ 30fps
M42 adapted MFT
Yi M1 M42 adapted video test
M42 adapted M4/3

Complete name : H:\PHOTO\XIAOMI\YI M1\PB060198.MP4
Format : MPEG-4
Format profile : Base Media / Version 2
Codec ID : mp42 (mp42/avc1)
File size : 608 MiB
Duration : 1 min 7 s
Overall bit rate mode : Variable
Overall bit rate : 76.1 Mb/s
Encoded date : UTC 2019-11-06 17:39:46
Tagged date : UTC 2019-11-06 17:39:46

Video
ID : 1
Format : AVC
Format/Info : Advanced Video Codec
Format profile : High@L5.1
Format settings : 1 Ref Frames
Format settings, CABAC : No
Format settings, Reference frames : 1 frame
Format settings, GOP : M=1, N=15
Codec ID : avc1
Codec ID/Info : Advanced Video Coding
Duration : 1 min 7 s
Bit rate : 75.9 Mb/s
Width : 3 840 pixels
Height : 2 160 pixels
Display aspect ratio : 16:9
Frame rate mode : Constant
Frame rate : 29.970 (30000/1001) FPS
Color space : YUV
Chroma subsampling : 4:2:0
Bit depth : 8 bits
Scan type : Progressive
Bits/(Pixel*Frame) : 0.305
Stream size : 607 MiB (100%)
Language : English
Encoded date : UTC 2019-11-06 17:39:46
Tagged date : UTC 2019-11-06 17:39:46
Color range : Full
Color primaries : BT.601 NTSC
Transfer characteristics : BT.709
Matrix coefficients : BT.601
Menus : 3
Codec configuration box : avcC

Audio
ID : 2
Format : AAC LC
Format/Info : Advanced Audio Codec Low Complexity
Codec ID : mp4a-40-2
Duration : 1 min 7 s
Source duration : 1 min 7 s
Bit rate mode : Variable
Bit rate : 128 kb/s
Maximum bit rate : 192 kb/s
Channel(s) : 2 channels
Channel layout : L R
Sampling rate : 48.0 kHz
Frame rate : 46.875 FPS (1024 SPF)
Compression mode : Lossy
Stream size : 1.02 MiB (0%)
Source stream size : 1.02 MiB (0%)
Language : English
Encoded date : UTC 2019-11-06 17:39:46

In the park Bench Trees : Xiaomi Yi M1 with Helios-44M-4 58mm f/2 M42 adapted to M4/3 4k




Bench Trees Plants in the park Larissa Greece
Camera : Xiaomi Yi M1 mirrorless Sony IMX269
Lens : Helios-44M-4 58mm f/2 M42 @ f/2
Mode : A ISO 200 EV 0,0
Video Stabilization ON Video 3840x2160 @ 30fps
M42 adapted MFT
Yi M1 M42 adapted video test
M42 adapted M4/3

Complete name : YI M1\VIDEO\PB050117.MP4
Format : MPEG-4
Format profile : Base Media / Version 2
Codec ID : mp42 (mp42/avc1)
File size : 1.07 GiB
Duration : 2 min 0 s
Overall bit rate mode : Variable
Overall bit rate : 76.2 Mb/s
Encoded date : UTC 2019-11-05 14:10:14
Tagged date : UTC 2019-11-05 14:10:14

Video
ID : 1
Format : AVC
Format/Info : Advanced Video Codec
Format profile : High@L5.1
Format settings : 1 Ref Frames
Format settings, CABAC : No
Format settings, Reference frames : 1 frame
Format settings, GOP : M=1, N=15
Codec ID : avc1
Codec ID/Info : Advanced Video Coding
Duration : 2 min 0 s
Bit rate : 76.1 Mb/s
Width : 3 840 pixels
Height : 2 160 pixels
Display aspect ratio : 16:9
Frame rate mode : Constant
Frame rate : 29.970 (30000/1001) FPS
Color space : YUV
Chroma subsampling : 4:2:0
Bit depth : 8 bits
Scan type : Progressive
Bits/(Pixel*Frame) : 0.306
Stream size : 1.06 GiB (100%)
Language : English
Encoded date : UTC 2019-11-05 14:10:14
Tagged date : UTC 2019-11-05 14:10:14
Color range : Full
Color primaries : BT.601 NTSC
Transfer characteristics : BT.709
Matrix coefficients : BT.601
Menus : 3
Codec configuration box : avcC

Audio
ID : 2
Format : AAC LC
Format/Info : Advanced Audio Codec Low Complexity
Codec ID : mp4a-40-2
Duration : 2 min 0 s
Source duration : 2 min 0 s
Bit rate mode : Variable
Bit rate : 128 kb/s
Maximum bit rate : 192 kb/s
Channel(s) : 2 channels
Channel layout : L R
Sampling rate : 48.0 kHz
Frame rate : 46.875 FPS (1024 SPF)
Compression mode : Lossy
Stream size : 1.82 MiB (0%)
Source stream size : 1.82 MiB (0%)
Language : English
Encoded date : UTC 2019-11-05 14:10:14

In the park Trees Blue Sky : Xiaomi Yi M1 with Helios-44M-4 58mm f/2 M42 adapted to M4/3 4k




Blue Sky, Trees in the park Larissa Greece
Camera : Xiaomi Yi M1 mirrorless Sony IMX269
Lens : Helios-44M-4 58mm f/2 M42 @ f/2
Mode : A ISO 200 EV 0,0
Video Stabilization ON Video 3840x2160 @ 30fps
M42 adapted MFT
Yi M1 M42 adapted video test
M42 adapted M4/3

Complete name : YI M1\VIDEO\PB050121.MP4
Format : MPEG-4
Format profile : Base Media / Version 2
Codec ID : mp42 (mp42/avc1)
File size : 923 MiB
Duration : 1 min 40 s
Overall bit rate mode : Variable
Overall bit rate : 77.3 Mb/s
Encoded date : UTC 2019-11-05 14:17:56
Tagged date : UTC 2019-11-05 14:17:56

Video
ID : 1
Format : AVC
Format/Info : Advanced Video Codec
Format profile : High@L5.1
Format settings : 1 Ref Frames
Format settings, CABAC : No
Format settings, Reference frames : 1 frame
Format settings, GOP : M=1, N=15
Codec ID : avc1
Codec ID/Info : Advanced Video Coding
Duration : 1 min 40 s
Bit rate : 77.2 Mb/s
Width : 3 840 pixels
Height : 2 160 pixels
Display aspect ratio : 16:9
Frame rate mode : Constant
Frame rate : 29.970 (30000/1001) FPS
Color space : YUV
Chroma subsampling : 4:2:0
Bit depth : 8 bits
Scan type : Progressive
Bits/(Pixel*Frame) : 0.311
Stream size : 921 MiB (100%)
Language : English
Encoded date : UTC 2019-11-05 14:17:56
Tagged date : UTC 2019-11-05 14:17:56
Color range : Full
Color primaries : BT.601 NTSC
Transfer characteristics : BT.709
Matrix coefficients : BT.601
Menus : 3
Codec configuration box : avcC

Audio
ID : 2
Format : AAC LC
Format/Info : Advanced Audio Codec Low Complexity
Codec ID : mp4a-40-2
Duration : 1 min 40 s
Source duration : 1 min 40 s
Bit rate mode : Variable
Bit rate : 128 kb/s
Maximum bit rate : 192 kb/s
Channel(s) : 2 channels
Channel layout : L R
Sampling rate : 48.0 kHz
Frame rate : 46.875 FPS (1024 SPF)
Compression mode : Lossy
Stream size : 1.52 MiB (0%)
Source stream size : 1.52 MiB (0%)
Language : English
Encoded date : UTC 2019-11-05 14:17:56

In the park Tree Sun flares: Xiaomi Yi M1 with Helios-44M-4 58mm f/2 M42 adapted to M4/3 4k




Tree Sun flares in the park Larissa Greece
Camera : Xiaomi Yi M1 mirrorless Sony IMX269
Lens : Helios-44M-4 58mm f/2 M42 @ f/2
Mode : A ISO 200 EV 0,0
Video Stabilization ON Video 3840x2160 @ 30fps
M42 adapted MFT
Yi M1 M42 adapted video test
M42 adapted M4/3

Complete name : YI M1\VIDEO\PB050119.MP4
Format : MPEG-4
Format profile : Base Media / Version 2
Codec ID : mp42 (mp42/avc1)
File size : 898 MiB
Duration : 1 min 39 s
Overall bit rate mode : Variable
Overall bit rate : 76.0 Mb/s
Encoded date : UTC 2019-11-05 14:14:15
Tagged date : UTC 2019-11-05 14:14:15

Video
ID : 1
Format : AVC
Format/Info : Advanced Video Codec
Format profile : High@L5.1
Format settings : 1 Ref Frames
Format settings, CABAC : No
Format settings, Reference frames : 1 frame
Format settings, GOP : M=1, N=15
Codec ID : avc1
Codec ID/Info : Advanced Video Coding
Duration : 1 min 39 s
Bit rate : 75.9 Mb/s
Width : 3 840 pixels
Height : 2 160 pixels
Display aspect ratio : 16:9
Frame rate mode : Constant
Frame rate : 29.970 (30000/1001) FPS
Color space : YUV
Chroma subsampling : 4:2:0
Bit depth : 8 bits
Scan type : Progressive
Bits/(Pixel*Frame) : 0.305
Stream size : 897 MiB (100%)
Language : English
Encoded date : UTC 2019-11-05 14:14:15
Tagged date : UTC 2019-11-05 14:14:15
Color range : Full
Color primaries : BT.601 NTSC
Transfer characteristics : BT.709
Matrix coefficients : BT.601
Menus : 3
Codec configuration box : avcC

Audio
ID : 2
Format : AAC LC
Format/Info : Advanced Audio Codec Low Complexity
Codec ID : mp4a-40-2
Duration : 1 min 39 s
Source duration : 1 min 39 s
Bit rate mode : Variable
Bit rate : 128 kb/s
Maximum bit rate : 192 kb/s
Channel(s) : 2 channels
Channel layout : L R
Sampling rate : 48.0 kHz
Frame rate : 46.875 FPS (1024 SPF)
Compression mode : Lossy
Stream size : 1.50 MiB (0%)
Source stream size : 1.50 MiB (0%)
Language : English
Encoded date : UTC 2019-11-05 14:14:15

In the park Βench : Xiaomi Yi M1 with Helios-44M-4 58mm f/2 M42 adapted to M4/3 4k




Βench in the park Larissa Greece
Camera : Xiaomi Yi M1 mirrorless Sony IMX269
Lens : Helios-44M-4 58mm f/2 M42 @ f/2
Mode : A ISO 200 EV 0,0
Video Stabilization ON Video 3840x2160 @ 30fps
M42 adapted MFT
Yi M1 M42 adapted video test
M42 adapted M4/3

Complete name : YI M1\VIDEO\PB050120.MP4
Format : MPEG-4
Format profile : Base Media / Version 2
Codec ID : mp42 (mp42/avc1)
File size : 800 MiB
Duration : 1 min 28 s
Overall bit rate mode : Variable
Overall bit rate : 76.2 Mb/s
Encoded date : UTC 2019-11-05 14:16:11
Tagged date : UTC 2019-11-05 14:16:11

Video
ID : 1
Format : AVC
Format/Info : Advanced Video Codec
Format profile : High@L5.1
Format settings : 1 Ref Frames
Format settings, CABAC : No
Format settings, Reference frames : 1 frame
Format settings, GOP : M=1, N=15
Codec ID : avc1
Codec ID/Info : Advanced Video Coding
Duration : 1 min 28 s
Bit rate : 76.0 Mb/s
Width : 3 840 pixels
Height : 2 160 pixels
Display aspect ratio : 16:9
Frame rate mode : Constant
Frame rate : 29.970 (30000/1001) FPS
Color space : YUV
Chroma subsampling : 4:2:0
Bit depth : 8 bits
Scan type : Progressive
Bits/(Pixel*Frame) : 0.306
Stream size : 798 MiB (100%)
Language : English
Encoded date : UTC 2019-11-05 14:16:11
Tagged date : UTC 2019-11-05 14:16:11
Color range : Full
Color primaries : BT.601 NTSC
Transfer characteristics : BT.709
Matrix coefficients : BT.601
Menus : 3
Codec configuration box : avcC

Audio
ID : 2
Format : AAC LC
Format/Info : Advanced Audio Codec Low Complexity
Codec ID : mp4a-40-2
Duration : 1 min 28 s
Source duration : 1 min 28 s
Bit rate mode : Variable
Bit rate : 128 kb/s
Maximum bit rate : 192 kb/s
Channel(s) : 2 channels
Channel layout : L R
Sampling rate : 48.0 kHz
Frame rate : 46.875 FPS (1024 SPF)
Compression mode : Lossy
Stream size : 1.34 MiB (0%)
Source stream size : 1.34 MiB (0%)
Language : English
Encoded date : UTC 2019-11-05 14:16:11

In the park Swings : Xiaomi Yi M1 with Helios-44M-4 58mm f/2 M42 adapted to M4/3 4k




Swings in the park Larissa Greece
Camera : Xiaomi Yi M1 mirrorless Sony IMX269
Lens : Helios-44M-4 58mm f/2 M42 @ f/2
Mode : A ISO 200 EV 0,0
Video Stabilization ON Video 3840x2160 @ 30fps
M42 adapted MFT
Yi M1 M42 adapted video test
M42 adapted M4/3

Complete name : YI M1\VIDEO\PB050118.MP4
Format : MPEG-4
Format profile : Base Media / Version 2
Codec ID : mp42 (mp42/avc1)
File size : 635 MiB
Duration : 1 min 10 s
Overall bit rate mode : Variable
Overall bit rate : 76.1 Mb/s
Encoded date : UTC 2019-11-05 14:12:43
Tagged date : UTC 2019-11-05 14:12:43

Video
ID : 1
Format : AVC
Format/Info : Advanced Video Codec
Format profile : High@L5.1
Format settings : 1 Ref Frames
Format settings, CABAC : No
Format settings, Reference frames : 1 frame
Format settings, GOP : M=1, N=15
Codec ID : avc1
Codec ID/Info : Advanced Video Coding
Duration : 1 min 10 s
Bit rate : 75.9 Mb/s
Width : 3 840 pixels
Height : 2 160 pixels
Display aspect ratio : 16:9
Frame rate mode : Constant
Frame rate : 29.970 (30000/1001) FPS
Color space : YUV
Chroma subsampling : 4:2:0
Bit depth : 8 bits
Scan type : Progressive
Bits/(Pixel*Frame) : 0.305
Stream size : 634 MiB (100%)
Language : English
Encoded date : UTC 2019-11-05 14:12:43
Tagged date : UTC 2019-11-05 14:12:43
Color range : Full
Color primaries : BT.601 NTSC
Transfer characteristics : BT.709
Matrix coefficients : BT.601
Menus : 3
Codec configuration box : avcC

Audio
ID : 2
Format : AAC LC
Format/Info : Advanced Audio Codec Low Complexity
Codec ID : mp4a-40-2
Duration : 1 min 10 s
Source duration : 1 min 10 s
Bit rate mode : Variable
Bit rate : 128 kb/s
Maximum bit rate : 192 kb/s
Channel(s) : 2 channels
Channel layout : L R
Sampling rate : 48.0 kHz
Frame rate : 46.875 FPS (1024 SPF)
Compression mode : Lossy
Stream size : 1.06 MiB (0%)
Source stream size : 1.06 MiB (0%)
Language : English
Encoded date : UTC 2019-11-05 14:12:43

In the park Plant Tree : Xiaomi Yi M1 with Helios-44M-4 58mm f/2 M42 adapted to M4/3 4k




Plant Tree in the park Larissa Greece
Camera : Xiaomi Yi M1 mirrorless Sony IMX269
Lens : Helios-44M-4 58mm f/2 M42 @ f/2
Mode : A ISO 200 EV 0,0
Video Stabilization ON Video 3840x2160 @ 30fps
M42 adapted MFT
Yi M1 M42 adapted video test
M42 adapted M4/3

Complete name : H:\PHOTO\XIAOMI\YI M1\VIDEO\PB050116.MP4
Format : MPEG-4
Format profile : Base Media / Version 2
Codec ID : mp42 (mp42/avc1)
File size : 899 MiB
Duration : 1 min 39 s
Overall bit rate mode : Variable
Overall bit rate : 76.1 Mb/s
Encoded date : UTC 2019-11-05 14:08:18
Tagged date : UTC 2019-11-05 14:08:18

Video
ID : 1
Format : AVC
Format/Info : Advanced Video Codec
Format profile : High@L5.1
Format settings : 1 Ref Frames
Format settings, CABAC : No
Format settings, Reference frames : 1 frame
Format settings, GOP : M=1, N=15
Codec ID : avc1
Codec ID/Info : Advanced Video Coding
Duration : 1 min 39 s
Bit rate : 75.9 Mb/s
Width : 3 840 pixels
Height : 2 160 pixels
Display aspect ratio : 16:9
Frame rate mode : Constant
Frame rate : 29.970 (30000/1001) FPS
Color space : YUV
Chroma subsampling : 4:2:0
Bit depth : 8 bits
Scan type : Progressive
Bits/(Pixel*Frame) : 0.305
Stream size : 897 MiB (100%)
Language : English
Encoded date : UTC 2019-11-05 14:08:18
Tagged date : UTC 2019-11-05 14:08:18
Color range : Full
Color primaries : BT.601 NTSC
Transfer characteristics : BT.709
Matrix coefficients : BT.601
Menus : 3
Codec configuration box : avcC

Audio
ID : 2
Format : AAC LC
Format/Info : Advanced Audio Codec Low Complexity
Codec ID : mp4a-40-2
Duration : 1 min 39 s
Source duration : 1 min 39 s
Bit rate mode : Variable
Bit rate : 128 kb/s
Maximum bit rate : 192 kb/s
Channel(s) : 2 channels
Channel layout : L R
Sampling rate : 48.0 kHz
Frame rate : 46.875 FPS (1024 SPF)
Compression mode : Lossy
Stream size : 1.50 MiB (0%)
Source stream size : 1.50 MiB (0%)
Language : English
Encoded date : UTC 2019-11-05 14:08:18

In the park Cat : Xiaomi Yi M1 with Helios-44M-4 58mm f/2 M42 adapted to M4/3 4k




Cat in the park Larissa Greece
Camera : Xiaomi Yi M1 mirrorless Sony IMX269
Lens : Helios-44M-4 58mm f/2 M42 @ f/2
Mode : A ISO 200 EV 0,0
Video Stabilization ON Video 3840x2160 @ 30fps
M42 adapted MFT
Yi M1 M42 adapted video test
M42 adapted M4/3

Complete name : YI M1\VIDEO\PB050115.MP4
Format : MPEG-4
Format profile : Base Media / Version 2
Codec ID : mp42 (mp42/avc1)
File size : 645 MiB
Duration : 1 min 11 s
Overall bit rate mode : Variable
Overall bit rate : 76.2 Mb/s
Encoded date : UTC 2019-11-05 14:06:52
Tagged date : UTC 2019-11-05 14:06:52

Video
ID : 1
Format : AVC
Format/Info : Advanced Video Codec
Format profile : High@L5.1
Format settings : 1 Ref Frames
Format settings, CABAC : No
Format settings, Reference frames : 1 frame
Format settings, GOP : M=1, N=15
Codec ID : avc1
Codec ID/Info : Advanced Video Coding
Duration : 1 min 11 s
Bit rate : 76.0 Mb/s
Width : 3 840 pixels
Height : 2 160 pixels
Display aspect ratio : 16:9
Frame rate mode : Constant
Frame rate : 29.970 (30000/1001) FPS
Color space : YUV
Chroma subsampling : 4:2:0
Bit depth : 8 bits
Scan type : Progressive
Bits/(Pixel*Frame) : 0.306
Stream size : 644 MiB (100%)
Language : English
Encoded date : UTC 2019-11-05 14:06:52
Tagged date : UTC 2019-11-05 14:06:52
Color range : Full
Color primaries : BT.601 NTSC
Transfer characteristics : BT.709
Matrix coefficients : BT.601
Menus : 3
Codec configuration box : avcC

Audio
ID : 2
Format : AAC LC
Format/Info : Advanced Audio Codec Low Complexity
Codec ID : mp4a-40-2
Duration : 1 min 11 s
Source duration : 1 min 11 s
Bit rate mode : Variable
Bit rate : 128 kb/s
Maximum bit rate : 192 kb/s
Channel(s) : 2 channels
Channel layout : L R
Sampling rate : 48.0 kHz
Frame rate : 46.875 FPS (1024 SPF)
Compression mode : Lossy
Stream size : 1.08 MiB (0%)
Source stream size : 1.08 MiB (0%)
Language : English
Encoded date : UTC 2019-11-05 14:06:52

In the park Plant : Xiaomi Yi M1 with Helios-44M-4 58mm f/2 M42 adapted to M4/3 4k




Plant in the park Larissa Greece
Camera : Xiaomi Yi M1 mirrorless Sony IMX269
Lens : Helios-44M-4 58mm f/2 M42 @ f/2
Mode : A ISO 200 EV 0,0
Video Stabilization ON Video 3840x2160 @ 30fps
M42 adapted MFT
Yi M1 M42 adapted video test
M42 adapted M4/3

Complete name : YI M1\VIDEO\PB050114.MP4
Format : MPEG-4
Format profile : Base Media / Version 2
Codec ID : mp42 (mp42/avc1)
File size : 572 MiB
Duration : 1 min 3 s
Overall bit rate mode : Variable
Overall bit rate : 76.0 Mb/s
Encoded date : UTC 2019-11-05 14:05:15
Tagged date : UTC 2019-11-05 14:05:15

Video
ID : 1
Format : AVC
Format/Info : Advanced Video Codec
Format profile : High@L5.1
Format settings : 1 Ref Frames
Format settings, CABAC : No
Format settings, Reference frames : 1 frame
Format settings, GOP : M=1, N=15
Codec ID : avc1
Codec ID/Info : Advanced Video Coding
Duration : 1 min 3 s
Bit rate : 75.9 Mb/s
Width : 3 840 pixels
Height : 2 160 pixels
Display aspect ratio : 16:9
Frame rate mode : Constant
Frame rate : 29.970 (30000/1001) FPS
Color space : YUV
Chroma subsampling : 4:2:0
Bit depth : 8 bits
Scan type : Progressive
Bits/(Pixel*Frame) : 0.305
Stream size : 571 MiB (100%)
Language : English
Encoded date : UTC 2019-11-05 14:05:15
Tagged date : UTC 2019-11-05 14:05:15
Color range : Full
Color primaries : BT.601 NTSC
Transfer characteristics : BT.709
Matrix coefficients : BT.601
Menus : 3
Codec configuration box : avcC

Audio
ID : 2
Format : AAC LC
Format/Info : Advanced Audio Codec Low Complexity
Codec ID : mp4a-40-2
Duration : 1 min 3 s
Source duration : 1 min 3 s
Bit rate mode : Variable
Bit rate : 128 kb/s
Maximum bit rate : 192 kb/s
Channel(s) : 2 channels
Channel layout : L R
Sampling rate : 48.0 kHz
Frame rate : 46.875 FPS (1024 SPF)
Compression mode : Lossy
Stream size : 980 KiB (0%)
Source stream size : 981 KiB (0%)
Language : English
Encoded date : UTC 2019-11-05 14:05:15

Genova città deserta Seconda parte rimaniamo a casa Μένουμε Σπίτι και εμείς

rimaniamo a casa Seconda parte Genova città deserta #StayHome Γένοβα δεύτερο μέρος Μένουμε Σπίτι και εμείς 2nd Part desert Genoa Geno...