Showing posts with label Flowers. Show all posts
Showing posts with label Flowers. Show all posts

Macro focusing 1m Xiaomi Yi M1 with SIGMA AF APO MACRO 180 mm f/5.6 EOS to M4/3 MFT 504mm @ 35mm


Macro focusing 1m Xiaomi Yi M1 with SIGMA AF APO MACRO 180 mm f/5.6 EOS to M4/3 MFT 504mm @ 35mm



Macro focusing 1m  yi m1 video test 4k  (UNEDITED VIDEO FILE)
Camera : Xiaomi Yi M1 mirrorless Sony IMX269
Lens : SIGMA AF APO MACRO 180 mm f/5.6 Ø52 eos @ f/5.6 504mm equivalent 35mm 
Mode : A  ISO 200 EV 0,0
Video Stabilization OFF Video 3840x2160 @ 30fps crop 2.8 at 35mm

Don’t forget to click the bell to turn on post notifications!

Nikolaos Instagram: https://www.instagram.com/sakellarisnikolaos/
Twitter: https://twitter.com/SakellarisNiko
Facebook: https://www.facebook.com/nikolaos.sakellaris/
Blog: https://video-photo-blog.blogspot.com/

Complete name : I:\DCIM\105YICAM\P4070045.MP4 
Format : MPEG-4 
Format profile : Base Media / Version 2 
Codec ID : mp42 (mp42/avc1) 
File size : 617 MiB 
Duration : 1 min 8 s 
Overall bit rate mode : Variable 
Overall bit rate : 76.0 Mb/s 
Encoded date : UTC 2020-04-07 18:09:53 

Video 
ID : 1 
Format : AVC 
Format/Info : Advanced Video Codec 
Format profile : High@L5.1 
Format settings : 1 Ref Frames 
Format settings, CABAC : No 
Format settings, RefFrames : 1 frame 
Format settings, GOP : M=1, N=15 
Codec ID : avc1 
Codec ID/Info : Advanced Video Coding 
Duration : 1 min 8 s 
Bit rate : 75.9 Mb/s 
Width : 3 840 pixels 
Height : 2 160 pixels 
Display aspect ratio : 16:9 
Frame rate mode : Constant 
Frame rate : 29.970 (30000/1001) FPS 
Color space : YUV 
Chroma subsampling : 4:2:0 
Bit depth : 8 bits 
Scan type : Progressive 
Bits/(Pixel*Frame) : 0.305 
Stream size : 616 MiB (100%) 
Language : English 
Color range : Full 
Color primaries : BT.601 NTSC 
Transfer characteristics : BT.709 
Matrix coefficients : BT.601 
Menus : 3 
Codec configuration box : avcC 

Audio 
ID : 2 
Format : AAC LC 
Format/Info : Advanced Audio Codec Low Complexity 
Codec ID : mp4a-40-2 
Duration : 1 min 8 s 
Source duration : 1 min 8 s 
Bit rate mode : Variable 
Bit rate : 128 kb/s 
Maximum bit rate : 192 kb/s 
Channel(s) : 2 channels 
Channel layout : L R 
Sampling rate : 48.0 kHz 
Frame rate : 46.875 FPS (1024 SPF) 
Compression mode : Lossy 
Stream size : 1.03 MiB (0%) 
Source stream size : 1.03 MiB (0%) 
Language : English






Macro focusing 1m,EOS adapted to M4/3,
Yi M1 EOS adapted video test,
Xiaomi Yi M1 SIGMA AF APO MACRO 180 mm 1:5.6,
SIGMA AF APO MACRO 180 mm 1:5.6,
Macro focusing SIGMA AF APO MACRO 180 mm,
Xiaomi Yi M1 EOS adapted,EOS adapted MFT,
3840x2160 @ 30fps,mirrorless Sony IMX269,
Dove Bird 4K


At the sun loebner magnolia Venizelou street Larissa 17/03/2020 NEX-5N HEXANON AR 50mm F1,8


At the sun loebner magnolia Venizelou street Larissa 17/03/2020 NEX-5N HEXANON AR 50mm F1,8

Στον ήλιο loebner magnolia Βενιζέλου street Λάρισα 17/03/2020Creative Style  Crtv-S Sunset ! (UNEDITED VIDEO FILE)
Creative Style  Crtv-S Sunset 
Flowered magnolia pink 
Filming Location: Larissa , Greece.
Camera : Sony NEX 5N 16.1 Mp 
Crop factor 1.5
Lens : KONICA HEXANON AR 50mm F1,8 @1.8
Mode : A  ISO 100 EV 0,0  (1/1000-40000) creative style Sunset  0 0 0
Video Stabilization OFF Video 1920x1080 @ 50fps
AR adapted to NEX 

Don’t forget to Subscribe and  click the bell to turn on post notifications!

Nikolaos Instagram: https://www.instagram.com/sakellarisn...
Twitter: https://twitter.com/SakellarisNiko
Facebook: https://www.facebook.com/nikolaos.sak...
Blog: https://video-photo-blog.blogspot.com/

Complete name : PHOTO\SIONY\NEX-5N\stream\00019.MTS 
Format : BDAV 
Format/Info : Blu-ray Video 
File size : 253 MiB 
Duration : 1 min 20 s 
Overall bit rate mode : Variable 
Overall bit rate : 26.5 Mb/s 
Maximum Overall bit rate : 28.0 Mb/s 
Recorded date : 2020-03-17 18:05:57+02:00 
Writing application : Sony NEX-5N 

Video 
ID : 4113 (0x1011) 
Menu ID : 1 (0x1) 
Format : AVC 
Format/Info : Advanced Video Codec 
Format profile : High@L4.2 
Format settings : CABAC / 2 Ref Frames 
Format settings, CABAC : Yes 
Format settings, Reference frames : 2 frames 
Format settings, GOP : M=1, N=12 
Codec ID : 27 
Duration : 1 min 20 s 
Bit rate mode : Variable 
Bit rate : 25.2 Mb/s 
Maximum bit rate : 26.0 Mb/s 
Width : 1 920 pixels 
Height : 1 080 pixels 
Display aspect ratio : 16:9 
Frame rate : 50.000 FPS 
Color space : YUV 
Chroma subsampling : 4:2:0 
Bit depth : 8 bits 
Scan type : Progressive 
Bits/(Pixel*Frame) : 0.243 
Stream size : 240 MiB (95%) 
IrisFNumber : 0.000000 

Audio 
ID : 4352 (0x1100) 
Menu ID : 1 (0x1) 
Format : AC-3 
Format/Info : Audio Coding 3 
Commercial name : Dolby Digital 
Codec ID : 129 
Duration : 1 min 20 s 
Bit rate mode : Constant 
Bit rate : 256 kb/s 
Channel(s) : 2 channels 
Channel layout : L R 
Sampling rate : 48.0 kHz 
Frame rate : 31.250 FPS (1536 SPF) 
Compression mode : Lossy 
Stream size : 2.45 MiB (1%) 
Service kind : Complete Main 

Text 
ID : 4608 (0x1200) 
Menu ID : 1 (0x1) 
Format : PGS 
Codec ID : 144 
Duration : 1 min 19 s


Sony NEX-5N with KONICA HEXANON AR 50mm F1,AR adapted to NEX,Sony NEX 5N adapted to AR,Sony NEX 5N KONICA HEXANON AR 50mm F1,Flowered magnolia pink Sony NEX 5N,Sony NEX 5N in mode M iso 100 1/50,Flowered magnolia pink sony nex 5n,Flowered magnolia pink,KONICA HEXANON AR 50mm F1,8 AR adapted to NEX,8 AR adapted to NEX @ f/1.8,Creative Style Sunset,Crtv-S Sunset

At shadow loebner magnolia Venizelou street Larissa 17/03/2020 NEX-5N HEXANON AR 50mm F1,8


At shadow loebner magnolia Venizelou street Larissa 17/03/2020 NEX-5N HEXANON AR 50mm F1,8






Στη σκιά loebner magnolia Βενιζέλου street Λάρισα 17/03/2020Creative Style  Crtv-S Sunset 
Creative Style  Crtv-S Sunset ! (UNEDITED VIDEO FILE)
Flowered magnolia pink 
Filming Location: Larissa , Greece.
Camera : Sony NEX 5N 16.1 Mp 
Crop factor 1.5
Lens : KONICA HEXANON AR 50mm F1,8 @1.8
Mode : A  ISO 100 EV 0,0  (1/1000-40000) creative style Sunset  0 0 0
Video Stabilization OFF Video 1920x1080 @ 50fps
AR adapted to NEX 

Don’t forget to Subscribe and  click the bell to turn on post notifications!

Nikolaos Instagram: https://www.instagram.com/sakellarisn...
Twitter: https://twitter.com/SakellarisNiko
Facebook: https://www.facebook.com/nikolaos.sak...
Blog: https://video-photo-blog.blogspot.com/

Complete name : PHOTO\SIONY\NEX-5N\stream\00018.MTS 
Format : BDAV 
Format/Info : Blu-ray Video 
File size : 227 MiB 
Duration : 1 min 11 s 
Overall bit rate mode : Variable 
Overall bit rate : 26.5 Mb/s 
Maximum Overall bit rate : 28.0 Mb/s 
Recorded date : 2020-03-17 18:04:09+02:00 
Writing application : Sony NEX-5N 

Video 
ID : 4113 (0x1011) 
Menu ID : 1 (0x1) 
Format : AVC 
Format/Info : Advanced Video Codec 
Format profile : High@L4.2 
Format settings : CABAC / 2 Ref Frames 
Format settings, CABAC : Yes 
Format settings, Reference frames : 2 frames 
Format settings, GOP : M=1, N=12 
Codec ID : 27 
Duration : 1 min 12 s 
Bit rate mode : Variable 
Bit rate : 25.2 Mb/s 
Maximum bit rate : 26.0 Mb/s 
Width : 1 920 pixels 
Height : 1 080 pixels 
Display aspect ratio : 16:9 
Frame rate : 50.000 FPS 
Color space : YUV 
Chroma subsampling : 4:2:0 
Bit depth : 8 bits 
Scan type : Progressive 
Bits/(Pixel*Frame) : 0.243 
Stream size : 216 MiB (95%) 
IrisFNumber : 0.000000 

Audio 
ID : 4352 (0x1100) 
Menu ID : 1 (0x1) 
Format : AC-3 
Format/Info : Audio Coding 3 
Commercial name : Dolby Digital 
Codec ID : 129 
Duration : 1 min 12 s 
Bit rate mode : Constant 
Bit rate : 256 kb/s 
Channel(s) : 2 channels 
Channel layout : L R 
Sampling rate : 48.0 kHz 
Frame rate : 31.250 FPS (1536 SPF) 
Compression mode : Lossy 
Stream size : 2.20 MiB (1%) 
Service kind : Complete Main 

Text 
ID : 4608 (0x1200) 
Menu ID : 1 (0x1) 
Format : PGS 
Codec ID : 144 
Duration : 1 min 11 s


Sony NEX-5N with KONICA HEXANON AR 50mm F1,AR adapted to NEX,Sony NEX 5N adapted to AR,Sony NEX 5N KONICA HEXANON AR 50mm F1,Flowered magnolia pink Sony NEX 5N,Sony NEX 5N in mode M iso 100 1/50,Flowered magnolia pink sony nex 5n,Flowered magnolia pink,KONICA HEXANON AR 50mm F1,8 AR adapted to NEX,8 AR adapted to NEX @ f/1.8,Creative Style Sunset,Crtv-S Sunset

Pink Rose : Xiaomi Yi M1 with TAMRON 1:3.8 1:4/210 80-210mm CF TELE MACRO 103A adapted to M4/3 4k




Pink Rose Larissa Greece
  • Camera : Xiaomi Yi M1 mirrorless Sony IMX269
  • Lens : TAMRON 1:3.8 1:4/210 80-210mm CF TELE MACRO BBAR MC 103A ADAPTALL Ø58 @ f/3.8 @ 210mm
  • Mode : A ISO 200 EV 0,0
  • Video Stabilization OFF Video 3840x2160 @ 30fps

  1. Xiaomi Yi M1 103A TAMRON 80-210mm
  2. TAMRON F/3.8 F/4@210mm 80-210mm 103A
  3. ADAPTALL adapted FD adapted MFT
  4. Yi M1 ADAPTALL adapted video test

Complete name : DCIM\103YICAM\PB150528.MP4
Format : MPEG-4
Format profile : Base Media / Version 2
Codec ID : mp42 (mp42/avc1)
File size : 980 MiB
Duration : 1 min 48 s
Overall bit rate mode : Variable
Overall bit rate : 76.1 Mb/s
Encoded date : UTC 2019-11-15 16:28:37
Video
ID : 1
Format : AVC
Format/Info : Advanced Video Codec
Format profile : High@L5.1
Format settings : 1 Ref Frames
Format settings, CABAC : No
Format settings, Reference frames : 1 frame
Format settings, GOP : M=1, N=15
Codec ID : avc1
Codec ID/Info : Advanced Video Coding
Duration : 1 min 48 s
Bit rate : 75.9 Mb/s
Width : 3 840 pixels
Height : 2 160 pixels
Display aspect ratio : 16:9
Frame rate mode : Constant
Frame rate : 29.970 (30000/1001) FPS
Color space : YUV
Chroma subsampling : 4:2:0
Bit depth : 8 bits
Scan type : Progressive
Bits/(Pixel*Frame) : 0.305
Stream size : 979 MiB (100%)
Language : English
Encoded date : UTC 2019-11-15 16:28:37
Tagged date : UTC 2019-11-15 16:28:37
Color range : Full
Color primaries : BT.601 NTSC
Transfer characteristics : BT.709
Matrix coefficients : BT.601
Menus : 3
Codec configuration box : avcC

Audio
ID : 2
Format : AAC LC
Format/Info : Advanced Audio Codec Low Complexity
Codec ID : mp4a-40-2
Duration : 1 min 48 s
Source duration : 1 min 48 s
Bit rate mode : Variable
Bit rate : 128 kb/s
Maximum bit rate : 192 kb/s
Channel(s) : 2 channels
Channel layout : L R
Sampling rate : 48.0 kHz
Frame rate : 46.875 FPS (1024 SPF)
Compression mode : Lossy
Stream size : 1.64 MiB (0%)
Source stream size : 1.64 MiB (0%)
Language : English
Encoded date : UTC 2019-11-15 16:28:37

Daises : Xiaomi Yi M1 with TAMRON 1:3.8 1:4/210 80-210mm CF TELE MACRO 103A adapted to M4/3 4k




Daises & Flowers Larissa Greece

  • Camera : Xiaomi Yi M1 mirrorless Sony IMX269
  • Lens : TAMRON 1:3.8 1:4/210 80-210mm CF TELE MACRO BBAR MC 103A ADAPTALL Ø58 @ f/3.8 @ 210mm
  • Mode : A ISO 200 EV 0,0
  • Video Stabilization OFF Video 3840x2160 @ 30fps

  1. Xiaomi Yi M1 103A TAMRON 80-210mm
  2. TAMRON F/3.8 F/4@210mm 80-210mm 103A
  3. ADAPTALL adapted FD adapted MFT
  4. Yi M1 ADAPTALL adapted video test

Complete name : DCIM\103YICAM\PB150531.MP4
Format : MPEG-4
Format profile : Base Media / Version 2
Codec ID : mp42 (mp42/avc1)
File size : 1.25 GiB
Duration : 2 min 21 s
Overall bit rate mode : Variable
Overall bit rate : 76.0 Mb/s
Encoded date : UTC 2019-11-15 16:33:37
Tagged date : UTC 2019-11-15 16:33:37

Video
ID : 1
Format : AVC
Format/Info : Advanced Video Codec
Format profile : High@L5.1
Format settings : 1 Ref Frames
Format settings, CABAC : No
Format settings, Reference frames : 1 frame
Format settings, GOP : M=1, N=15
Codec ID : avc1
Codec ID/Info : Advanced Video Coding
Duration : 2 min 21 s
Bit rate : 75.9 Mb/s
Width : 3 840 pixels
Height : 2 160 pixels
Display aspect ratio : 16:9
Frame rate mode : Constant
Frame rate : 29.970 (30000/1001) FPS
Color space : YUV
Chroma subsampling : 4:2:0
Bit depth : 8 bits
Scan type : Progressive
Bits/(Pixel*Frame) : 0.305
Stream size : 1.25 GiB (100%)
Language : English
Encoded date : UTC 2019-11-15 16:33:37
Tagged date : UTC 2019-11-15 16:33:37
Color range : Full
Color primaries : BT.601 NTSC
Transfer characteristics : BT.709
Matrix coefficients : BT.601
Menus : 3
Codec configuration box : avcC

Audio
ID : 2
Format : AAC LC
Format/Info : Advanced Audio Codec Low Complexity
Codec ID : mp4a-40-2
Duration : 2 min 21 s
Source duration : 2 min 21 s
Bit rate mode : Variable
Bit rate : 128 kb/s
Maximum bit rate : 192 kb/s
Channel(s) : 2 channels
Channel layout : L R
Sampling rate : 48.0 kHz
Frame rate : 46.875 FPS (1024 SPF)
Compression mode : Lossy
Stream size : 2.14 MiB (0%)
Source stream size : 2.14 MiB (0%)
Language : English
Encoded date : UTC 2019-11-15 16:33:37

Samsung NX1100 with Super Paragon PMC II AUTO 1:3.5 f=24mm Ø52




Pink Rose
Video: with Samsung NX-1100 20.3mp HD 1920 x 834 24fps (1.30)
Mode A ISO 100
Lens: Super Paragon PMC II AUTO 1:3.5 f=24mm @5.6 Canon FD
APERTURE (F) f/3.5
FOCAL LENGTH (MM) f=24mm  (FORMAT 35 mm full frame)
FOCAL LENGTH (MM) f=36mm  (FOCAL LENGTH APS-C)
FILTER DIAMETER (MM)  52mm
MINIMUM FOCUS DISTANCE 0.17m to Infinity.
Samsung NX-1100 NX adapted to CANON FD Mount adapted to NX Samsung

Complete name : I:\DCIM\221PHOTO\06081224.MP4
Format : MPEG-4
Format profile : Base Media / Version 2
Codec ID : mp42 (mp42/isom/avc1)
File size : 82.6 MiB
Duration : 1 min 3 s
Overall bit rate : 10.8 Mb/s

Video
ID : 1
Format : AVC
Format/Info : Advanced Video Codec
Format profile : High@L4.1
Format settings : 2 Ref Frames
Format settings, CABAC : No
Format settings, Reference frames : 2 frames
Format settings, GOP : M=1, N=24
Codec ID : avc1
Codec ID/Info : Advanced Video Coding
Duration : 1 min 3 s
Bit rate : 10.7 Mb/s
Width : 1 920 pixels
Height : 810 pixels
Display aspect ratio : 2.40:1
Frame rate mode : Constant
Frame rate : 24.000 FPS
Color space : YUV
Chroma subsampling : 4:2:0
Bit depth : 8 bits
Scan type : Progressive
Bits/(Pixel*Frame) : 0.288
Stream size : 81.6 MiB (99%)
Language : English
Codec configuration box : avcC

Audio
ID : 2
Format : AAC LC
Format/Info : Advanced Audio Codec Low Complexity
Codec ID : mp4a-40-2
Duration : 1 min 3 s
Bit rate mode : Constant
Bit rate : 128 kb/s
Channel(s) : 2 channels
Channel layout : L R
Sampling rate : 32.0 kHz
Frame rate : 31.250 FPS (1024 SPF)
Compression mode : Lossy
Stream size : 990 KiB (1%)
Language : English

Daisies : Xiaomi Yi M1 with smc PENTAX-M f/2 50mm Ø49 PK adapted to M4/3 4k




Daisies Cloudy Day Larissa Greece
Camera : Xiaomi Yi M1 mirrorless Sony IMX269
Lens : smc PENTAX-M f/2 50mm  Ø49 M42 @ f/2 @ f/2
Mode : A ISO 200 EV 0,0
Video Stabilization OFF Video 3840x2160 @ 30fps
PK adapted MFT
Yi M1 PK adapted video test
PK adapted M4/3

Complete name : XIAOMI\YI M1\VIDEO\PB110464.MP4
Format : MPEG-4
Format profile : Base Media / Version 2
Codec ID : mp42 (mp42/avc1)
File size : 690 MiB
Duration : 1 min 16 s
Overall bit rate mode : Variable
Overall bit rate : 76.1 Mb/s
Encoded date : UTC 2019-11-11 15:59:30
Tagged date : UTC 2019-11-11 15:59:30

Video
ID : 1
Format : AVC
Format/Info : Advanced Video Codec
Format profile : High@L5.1
Format settings : 1 Ref Frames
Format settings, CABAC : No
Format settings, Reference frames : 1 frame
Format settings, GOP : M=1, N=15
Codec ID : avc1
Codec ID/Info : Advanced Video Coding
Duration : 1 min 16 s
Bit rate : 76.0 Mb/s
Width : 3 840 pixels
Height : 2 160 pixels
Display aspect ratio : 16:9
Frame rate mode : Constant
Frame rate : 29.970 (30000/1001) FPS
Color space : YUV
Chroma subsampling : 4:2:0
Bit depth : 8 bits
Scan type : Progressive
Bits/(Pixel*Frame) : 0.306
Stream size : 689 MiB (100%)
Language : English
Encoded date : UTC 2019-11-11 15:59:30
Tagged date : UTC 2019-11-11 15:59:30
Color range : Full
Color primaries : BT.601 NTSC
Transfer characteristics : BT.709
Matrix coefficients : BT.601
Menus : 3
Codec configuration box : avcC

Audio
ID : 2
Format : AAC LC
Format/Info : Advanced Audio Codec Low Complexity
Codec ID : mp4a-40-2
Duration : 1 min 16 s
Source duration : 1 min 16 s
Bit rate mode : Variable
Bit rate : 128 kb/s
Maximum bit rate : 192 kb/s
Channel(s) : 2 channels
Channel layout : L R
Sampling rate : 48.0 kHz
Frame rate : 46.875 FPS (1024 SPF)
Compression mode : Lossy
Stream size : 1.15 MiB (0%)
Source stream size : 1.16 MiB (0%)
Language : English
Encoded date : UTC 2019-11-11 15:59:30

Pink Rose : Xiaomi Yi M1 with smc PENTAX-M 1:2 50mm Ø49 PK adapted to M4/3 4k





Pink Rose Cloudy Sky Larissa Greece
Camera : Xiaomi Yi M1 mirrorless Sony IMX269
Lens : smc PENTAX-M f/2 50mm  Ø49 M42 @ f/2 @ f/2
Mode : A ISO 200 EV 0,0
Video Stabilization OFF Video 3840x2160 @ 30fps
PK adapted MFT
Yi M1 PK adapted video test
PK adapted M4/3

Complete name : E:\PHOTO\XIAOMI\YI M1\PB110456.MP4
Format : MPEG-4
Format profile : Base Media / Version 2
Codec ID : mp42 (mp42/avc1)
File size : 717 MiB
Duration : 1 min 19 s
Overall bit rate mode : Variable
Overall bit rate : 76.0 Mb/s
Encoded date : UTC 2019-11-11 15:54:05
Tagged date : UTC 2019-11-11 15:54:05

Video
ID : 1
Format : AVC
Format/Info : Advanced Video Codec
Format profile : High@L5.1
Format settings : 1 Ref Frames
Format settings, CABAC : No
Format settings, Reference frames : 1 frame
Format settings, GOP : M=1, N=15
Codec ID : avc1
Codec ID/Info : Advanced Video Coding
Duration : 1 min 19 s
Bit rate : 75.9 Mb/s
Width : 3 840 pixels
Height : 2 160 pixels
Display aspect ratio : 16:9
Frame rate mode : Constant
Frame rate : 29.970 (30000/1001) FPS
Color space : YUV
Chroma subsampling : 4:2:0
Bit depth : 8 bits
Scan type : Progressive
Bits/(Pixel*Frame) : 0.305
Stream size : 716 MiB (100%)
Language : English
Encoded date : UTC 2019-11-11 15:54:05
Tagged date : UTC 2019-11-11 15:54:05
Color range : Full
Color primaries : BT.601 NTSC
Transfer characteristics : BT.709
Matrix coefficients : BT.601
Menus : 3
Codec configuration box : avcC

Audio
ID : 2
Format : AAC LC
Format/Info : Advanced Audio Codec Low Complexity
Codec ID : mp4a-40-2
Duration : 1 min 19 s
Source duration : 1 min 19 s
Bit rate mode : Variable
Bit rate : 128 kb/s
Maximum bit rate : 192 kb/s
Channel(s) : 2 channels
Channel layout : L R
Sampling rate : 48.0 kHz
Frame rate : 46.875 FPS (1024 SPF)
Compression mode : Lossy
Stream size : 1.20 MiB (0%)
Source stream size : 1.20 MiB (0%)
Language : English
Encoded date : UTC 2019-11-11 15:54:05

Reeds - Larissa - Greece ( Sanyo Xacti VPC-CG100 ) Video test #004




Reeds - Larissa - Greece
Sanyo Xacti VPC-CG100
Video test #004
Video Stabilazer OFF
Exposure A Aperture - f/3.5 - Shuter auto ( 1/30 ~ 1/1000 )
Focus Auto -ISO 50


Complete name : DCIM\100SANYO\SANY0260.MP4
Format : MPEG-4
Format profile : Base Media / Version 2
Codec ID : mp42 (mp42/avc1)
File size : 104 MiB
Duration : 1 min 4 s
Overall bit rate mode : Variable
Overall bit rate : 13.6 Mb/s
Movie_More : SANYO DIGITAL CAMERA CG100
Encoded date : UTC 2019-09-30 17:18:03
Tagged date : UTC 2019-09-30 17:18:03
Origin : Digital Camera
TAGS : O DIGITAL CAMERA

Video
ID : 1
Format : AVC
Format/Info : Advanced Video Codec
Format profile : Baseline@L4
Format settings : 2 Ref Frames
Format settings, CABAC : No
Format settings, Reference frames : 2 frames
Codec ID : avc1
Codec ID/Info : Advanced Video Coding
Duration : 1 min 4 s
Bit rate : 13.1 Mb/s
Width : 1 920 pixels
Height : 1 080 pixels
Display aspect ratio : 16:9
Frame rate mode : Constant
Frame rate : 29.970 (30000/1001) FPS
Color space : YUV
Chroma subsampling : 4:2:0
Bit depth : 8 bits
Scan type : Progressive
Bits/(Pixel*Frame) : 0.211
Stream size : 100 MiB (97%)
Language : English
Encoded date : UTC 2019-09-30 17:18:03
Tagged date : UTC 2019-09-30 17:18:03
Color range : Full
Color primaries : BT.709
Transfer characteristics : BT.709
Matrix coefficients : BT.709
Codec configuration box : avcC

Audio
ID : 2
Format : AAC LC
Format/Info : Advanced Audio Codec Low Complexity
Codec ID : mp4a-40-2
Duration : 1 min 4 s
Source duration : 1 min 4 s
Bit rate mode : Variable
Bit rate : 256 kb/s
Maximum bit rate : 192 kb/s
Channel(s) : 2 channels
Channel layout : L R
Sampling rate : 48.0 kHz
Frame rate : 46.875 FPS (1024 SPF)
Compression mode : Lossy
Stream size : 1.95 MiB (2%)
Source stream size : 1.95 MiB (2%)
Language : English
Encoded date : UTC 2019-09-30 17:18:03

Flower : f/8 Samsung NX20 + COSINON ZOOM MACRO MC F/3.5 70-210mm 67mm PK adapted to NX



Flower 1920 1080P 25fps
Camera Samsung NX20   SteadyShot  NO
MF Manual Shoting ISO 100 70mm Macro @ f/8
COSINON F3.5 70-210mm 67mm pentax
 PK adapted to NX


Complete name : NX20\104PHOTO\SAM_4010.MP4
Format : MPEG-4
Format profile : Base Media / Version 2
Codec ID : mp42 (mp42/isom/avc1)
File size : 54.1 MiB
Duration : 32 s 64 ms
Overall bit rate : 14.1 Mb/s

Video
ID : 1
Format : AVC
Format/Info : Advanced Video Codec
Format profile : High@L4.1
Format settings : 2 Ref Frames
Format settings, CABAC : No
Format settings, Reference frames : 2 frames
Format settings, GOP : M=1, N=25
Codec ID : avc1
Codec ID/Info : Advanced Video Coding
Duration : 31 s 670 ms
Bit rate : 14.2 Mb/s
Width : 1 920 pixels
Height : 1 080 pixels
Display aspect ratio : 16:9
Frame rate mode : Constant
Frame rate : 25.000 FPS
Color space : YUV
Chroma subsampling : 4:2:0
Bit depth : 8 bits
Scan type : Progressive
Bits/(Pixel*Frame) : 0.274
Stream size : 53.6 MiB (99%)
Language : English
Codec configuration box : avcC

Audio
ID : 2
Format : AAC LC
Format/Info : Advanced Audio Codec Low Complexity
Codec ID : mp4a-40-2
Duration : 32 s 64 ms
Bit rate mode : Constant
Bit rate : 128 kb/s
Channel(s) : 2 channels
Channel layout : L R
Sampling rate : 32.0 kHz
Frame rate : 31.250 FPS (1024 SPF)
Compression mode : Lossy
Stream size : 495 KiB (1%)
Language : English

Flower : f/5.6 Samsung NX20 + COSINON ZOOM MACRO MC F/3.5 70-210mm 67mm PK to NX



Flower1920 1080P 25fps
Camera Samsung NX20   SteadyShot  NO
MF Manual Shoting ISO 100 70mm Macro @ f/5.6
COSINON F3.5 70-210mm70-210mm 67mm pentax
 PK adapted to NX

Complete name : NX20\104PHOTO\SAM_4010.MP4
Format : MPEG-4
Format profile : Base Media / Version 2
Codec ID : mp42 (mp42/isom/avc1)
File size : 54.1 MiB
Duration : 32 s 64 ms
Overall bit rate : 14.1 Mb/s

Video
ID : 1
Format : AVC
Format/Info : Advanced Video Codec
Format profile : High@L4.1
Format settings : 2 Ref Frames
Format settings, CABAC : No
Format settings, Reference frames : 2 frames
Format settings, GOP : M=1, N=25
Codec ID : avc1
Codec ID/Info : Advanced Video Coding
Duration : 31 s 670 ms
Bit rate : 14.2 Mb/s
Width : 1 920 pixels
Height : 1 080 pixels
Display aspect ratio : 16:9
Frame rate mode : Constant
Frame rate : 25.000 FPS
Color space : YUV
Chroma subsampling : 4:2:0
Bit depth : 8 bits
Scan type : Progressive
Bits/(Pixel*Frame) : 0.274
Stream size : 53.6 MiB (99%)
Language : English
Codec configuration box : avcC

Audio
ID : 2
Format : AAC LC
Format/Info : Advanced Audio Codec Low Complexity
Codec ID : mp4a-40-2
Duration : 32 s 64 ms
Bit rate mode : Constant
Bit rate : 128 kb/s
Channel(s) : 2 channels
Channel layout : L R
Sampling rate : 32.0 kHz
Frame rate : 31.250 FPS (1024 SPF)
Compression mode : Lossy
Stream size : 495 KiB (1%)
Language : English

Flower : f/3.5 Samsung NX20 + COSINON ZOOM MACRO MC F/3.5 70-210mm 67mm



Flower1920 1080P 25fps
Camera Samsung NX20   SteadyShot  NO
MF Manual Shoting ISO 100 70mm Macro @ f/3.5
COSINON F3.5 70-210mm 67mm pentax
 PK adapted to NX

Complete name : NX20\104PHOTO\SAM_4009.MP4
Format : MPEG-4
Format profile : Base Media / Version 2
Codec ID : mp42 (mp42/isom/avc1)
File size : 49.2 MiB
Duration : 32 s 288 ms
Overall bit rate : 12.8 Mb/s

Video
ID : 1
Format : AVC
Format/Info : Advanced Video Codec
Format profile : High@L4.1
Format settings : 2 Ref Frames
Format settings, CABAC : No
Format settings, Reference frames : 2 frames
Format settings, GOP : M=1, N=25
Codec ID : avc1
Codec ID/Info : Advanced Video Coding
Duration : 31 s 950 ms
Bit rate : 12.8 Mb/s
Width : 1 920 pixels
Height : 1 080 pixels
Display aspect ratio : 16:9
Frame rate mode : Constant
Frame rate : 25.000 FPS
Color space : YUV
Chroma subsampling : 4:2:0
Bit depth : 8 bits
Scan type : Progressive
Bits/(Pixel*Frame) : 0.247
Stream size : 48.7 MiB (99%)
Language : English
Codec configuration box : avcC

Audio
ID : 2
Format : AAC LC
Format/Info : Advanced Audio Codec Low Complexity
Codec ID : mp4a-40-2
Duration : 32 s 288 ms
Bit rate mode : Constant
Bit rate : 128 kb/s
Channel(s) : 2 channels
Channel layout : L R
Sampling rate : 32.0 kHz
Frame rate : 31.250 FPS (1024 SPF)
Compression mode : Lossy
Stream size : 499 KiB (1%)
Language : English

Flowers 4: Panasonic Lumix DMC-GX80 4k UHD Canon FL 50mm f/1.4




Flowers
Panasonic Lumix DMC-GX80 4k UHD 25fps   94.2 Mb/s
Canon FL 50mm f/1.4 @f/1.4
Video Test 004

Complete name : DCIM\108_PANA\P1080621.MP4
Format : MPEG-4
Format profile : Base Media / Version 2
Codec ID : mp42 (mp42/avc1)
File size : 687 MiB
Duration : 1 min 1 s
Overall bit rate mode : Variable
Overall bit rate : 93.7 Mb/s
Encoded date : UTC 2019-05-05 18:03:34
Tagged date : UTC 2019-05-05 18:03:34
PANA : Ê

Video
ID : 1
Format : AVC
Format/Info : Advanced Video Codec
Format profile : High@L5.1
Format settings : CABAC / 2 Ref Frames
Format settings, CABAC : Yes
Format settings, RefFrames : 2 frames
Codec ID : avc1
Codec ID/Info : Advanced Video Coding
Duration : 1 min 1 s
Bit rate mode : Variable
Bit rate : 93.6 Mb/s
Maximum bit rate : 106 Mb/s
Width : 3 840 pixels
Height : 2 160 pixels
Display aspect ratio : 16:9
Frame rate mode : Constant
Frame rate : 25.000 FPS
Color space : YUV
Chroma subsampling : 4:2:0
Bit depth : 8 bits
Scan type : Progressive
Bits/(Pixel*Frame) : 0.451
Stream size : 685 MiB (100%)
Encoded date : UTC 2019-05-05 18:03:34
Tagged date : UTC 2019-05-05 18:03:34
Color range : Limited
Color primaries : BT.709
Transfer characteristics : BT.709
Matrix coefficients : BT.709
Codec configuration box : avcC

Audio
ID : 2
Format : AAC LC
Format/Info : Advanced Audio Codec Low Complexity
Codec ID : mp4a-40-2
Duration : 1 min 1 s
Source duration : 1 min 1 s
Bit rate mode : Constant
Bit rate : 128 kb/s
Channel(s) : 2 channels
Channel layout : L R
Sampling rate : 48.0 kHz
Frame rate : 46.875 FPS (1024 SPF)
Compression mode : Lossy
Stream size : 939 KiB (0%)
Source stream size : 940 KiB (0%)
Encoded date : UTC 2019-05-05 18:03:34

Flowers 3: Panasonic Lumix DMC-GX80 4k UHD Jupiter-37A 135mm f3.5




Flowers
Panasonic Lumix DMC-GX80 4k UHD 25fps   94.2 Mb/s
Jupiter-37A 135mm f3.5
Video Test 003

Complete name : E:\DCIM\108_PANA\P1080337.MP4
Format : MPEG-4
Format profile : Base Media / Version 2
Codec ID : mp42 (mp42/avc1)
File size : 360 MiB
Duration : 32 s 160 ms
Overall bit rate mode : Variable
Overall bit rate : 93.9 Mb/s
Encoded date : UTC 2019-05-01 19:40:17

PANA : Ê

Video
ID : 1
Format : AVC
Format/Info : Advanced Video Codec
Format profile : High@L5.1
Format settings : CABAC / 2 Ref Frames
Format settings, CABAC : Yes
Format settings, Reference frames : 2 frames
Codec ID : avc1
Codec ID/Info : Advanced Video Coding
Duration : 32 s 160 ms
Bit rate mode : Variable
Bit rate : 93.7 Mb/s
Maximum bit rate : 106 Mb/s
Width : 3 840 pixels
Height : 2 160 pixels
Display aspect ratio : 16:9
Frame rate mode : Constant
Frame rate : 25.000 FPS
Color space : YUV
Chroma subsampling : 4:2:0
Bit depth : 8 bits
Scan type : Progressive
Bits/(Pixel*Frame) : 0.452
Stream size : 359 MiB (100%)
Encoded date : UTC 2019-05-01 19:40:17

Color range : Limited
Color primaries : BT.709
Transfer characteristics : BT.709
Matrix coefficients : BT.709
Codec configuration box : avcC

Audio
ID : 2
Format : AAC LC
Format/Info : Advanced Audio Codec Low Complexity
Codec ID : mp4a-40-2
Duration : 32 s 160 ms
Source duration : 32 s 213 ms
Bit rate mode : Constant
Bit rate : 128 kb/s
Channel(s) : 2 channels
Channel layout : L R
Sampling rate : 48.0 kHz
Frame rate : 46.875 FPS (1024 SPF)
Compression mode : Lossy
Stream size : 492 KiB (0%)
Source stream size : 492 KiB (0%)
Encoded date : UTC 2019-05-01 19:40:17

Flowers 2: Panasonic Lumix DMC-GX80 4k UHD Jupiter-37A 135mm f3.5




Flowers
Panasonic Lumix DMC-GX80 4k UHD 25fps   94.2 Mb/s
Jupiter-37A 135mm f3.5 at f4
Video Test 002

Complete name : E:\DCIM\108_PANA\P1080404.MP4
Format : MPEG-4
Format profile : Base Media / Version 2
Codec ID : mp42 (mp42/avc1)
File size : 354 MiB
Duration : 31 s 680 ms
Overall bit rate mode : Variable
Overall bit rate : 93.7 Mb/s
Encoded date : UTC 2019-05-02 10:56:14

PANA : Ê

Video
ID : 1
Format : AVC
Format/Info : Advanced Video Codec
Format profile : High@L5.1
Format settings : CABAC / 2 Ref Frames
Format settings, CABAC : Yes
Format settings, Reference frames : 2 frames
Codec ID : avc1
Codec ID/Info : Advanced Video Coding
Duration : 31 s 680 ms
Bit rate mode : Variable
Bit rate : 93.5 Mb/s
Maximum bit rate : 106 Mb/s
Width : 3 840 pixels
Height : 2 160 pixels
Display aspect ratio : 16:9
Frame rate mode : Constant
Frame rate : 25.000 FPS
Color space : YUV
Chroma subsampling : 4:2:0
Bit depth : 8 bits
Scan type : Progressive
Bits/(Pixel*Frame) : 0.451
Stream size : 353 MiB (100%)
Encoded date : UTC 2019-05-02 10:56:14

Color range : Limited
Color primaries : BT.709
Transfer characteristics : BT.709
Matrix coefficients : BT.709
Codec configuration box : avcC

Audio
ID : 2
Format : AAC LC
Format/Info : Advanced Audio Codec Low Complexity
Codec ID : mp4a-40-2
Duration : 31 s 680 ms
Source duration : 31 s 723 ms
Bit rate mode : Constant
Bit rate : 128 kb/s
Channel(s) : 2 channels
Channel layout : L R
Sampling rate : 48.0 kHz
Frame rate : 46.875 FPS (1024 SPF)
Compression mode : Lossy
Stream size : 484 KiB (0%)
Source stream size : 485 KiB (0%)
Encoded date : UTC 2019-05-02 10:56:14

Flowers 1: Panasonic Lumix DMC-GX80 4k UHD Jupiter-37A 135mm f3.5




Flowers
Panasonic Lumix DMC-GX80 4k UHD 25fps   94.2 Mb/s
Jupiter-37A 135mm f3.5 at f4
Video Test 001

Complete name : DCIM\108_PANA\P1080403.MP4
Format : MPEG-4
Format profile : Base Media / Version 2
Codec ID : mp42 (mp42/avc1)
File size : 361 MiB
Duration : 32 s 160 ms
Overall bit rate mode : Variable
Overall bit rate : 94.2 Mb/s
Encoded date : UTC 2019-05-02 10:54:49

PANA : Ê

Video
ID : 1
Format : AVC
Format/Info : Advanced Video Codec
Format profile : High@L5.1
Format settings : CABAC / 2 Ref Frames
Format settings, CABAC : Yes
Format settings, Reference frames : 2 frames
Codec ID : avc1
Codec ID/Info : Advanced Video Coding
Duration : 32 s 160 ms
Bit rate mode : Variable
Bit rate : 94.0 Mb/s
Maximum bit rate : 106 Mb/s
Width : 3 840 pixels
Height : 2 160 pixels
Display aspect ratio : 16:9
Frame rate mode : Constant
Frame rate : 25.000 FPS
Color space : YUV
Chroma subsampling : 4:2:0
Bit depth : 8 bits
Scan type : Progressive
Bits/(Pixel*Frame) : 0.453
Stream size : 360 MiB (100%)
Encoded date : UTC 2019-05-02 10:54:49

Color range : Limited
Color primaries : BT.709
Transfer characteristics : BT.709
Matrix coefficients : BT.709
Codec configuration box : avcC

Audio
ID : 2
Format : AAC LC
Format/Info : Advanced Audio Codec Low Complexity
Codec ID : mp4a-40-2
Duration : 32 s 160 ms
Source duration : 32 s 213 ms
Bit rate mode : Constant
Bit rate : 128 kb/s
Channel(s) : 2 channels
Channel layout : L R
Sampling rate : 48.0 kHz
Frame rate : 46.875 FPS (1024 SPF)
Compression mode : Lossy
Stream size : 492 KiB (0%)
Source stream size : 492 KiB (0%)
Encoded date : UTC 2019-05-02 10:54:49

Poppy Flower : JVC Everio GZ-HM200BE video test #001 1080 25fps



Flowers JVC Everio GZ-HM200BE
video test #001 1080 25fps bit rate : 24.0 Mb/s

Complete name : AVCHD\BDMV\STREAM\00025.MTS
Format : BDAV
Format/Info : Blu-ray Video
File size : 86.4 MiB
Duration : 30 s 659 ms
Overall bit rate mode : Variable
Overall bit rate : 23.6 Mb/s
Maximum Overall bit rate : 24.0 Mb/s
Recorded date : 2019-04-30 16:09:30+00:00
Writing application : JVC

Video
ID : 4113 (0x1011)
Menu ID : 1 (0x1)
Format : AVC
Format/Info : Advanced Video Codec
Format profile : High@L4
Format settings : 2 Ref Frames
Format settings, CABAC : No
Format settings, Reference frames : 2 frames
Format settings, GOP : M=2, N=12
Codec ID : 27
Duration : 30 s 680 ms
Bit rate mode : Variable
Bit rate : 22.6 Mb/s
Width : 1 920 pixels
Height : 1 080 pixels
Display aspect ratio : 16:9
Frame rate : 25.000 FPS
Color space : YUV
Chroma subsampling : 4:2:0
Bit depth : 8 bits
Scan type : Interlaced
Scan type, store method : Separated fields
Scan order : Top Field First
Bits/(Pixel*Frame) : 0.436
Stream size : 82.1 MiB (95%)

Audio
ID : 4352 (0x1100)
Menu ID : 1 (0x1)
Format : AC-3
Format/Info : Audio Coding 3
Commercial name : Dolby Digital
Codec ID : 129
Duration : 30 s 720 ms
Bit rate mode : Constant
Bit rate : 256 kb/s
Channel(s) : 2 channels
Channel layout : L R
Sampling rate : 48.0 kHz
Frame rate : 31.250 FPS (1536 SPF)
Bit depth : 16 bits
Compression mode : Lossy
Delay relative to video : -40 ms
Stream size : 960 KiB (1%)
Service kind : Complete Main

Text
ID : 4608 (0x1200)
Menu ID : 1 (0x1)
Format : PGS
Codec ID : 144
Duration : 30 s 215 ms
Delay relative to video : -40 ms

Nikon D3200 test 4k Upscaled Video UHD 362 Mb/s




4k test
Nikon D3200 4k test upscaled video UHD
https://www.youtube.com/watch?v=8g_wM0gDD4U in FHD
Video Test 2160 25p 362 Mb/s
Mode M iso 200
Lens : Tamron ZOOM MACRO 1:4.5 85-210mm 55MM BBAR MULTI C.
filmed in MACRO

Complete name : 4κ.mp4
Format : MPEG-4
Format profile : Base Media
Codec ID : isom (isom/iso2/mp41)
File size : 1.35 GiB
Duration : 31 s 936 ms
Overall bit rate : 362 Mb/s
Writing application : Lavf57.83.100

Video
ID : 1
Format : HEVC
Format/Info : High Efficiency Video Coding
Format profile : Main@L5@Main
Codec ID : hev1
Codec ID/Info : High Efficiency Video Coding
Duration : 31 s 920 ms
Bit rate : 361 Mb/s
Width : 3 840 pixels
Height : 2 160 pixels
Display aspect ratio : 16:9
Frame rate mode : Constant
Frame rate : 25.000 FPS
Color space : YUV
Chroma subsampling : 4:2:0
Bit depth : 8 bits
Bits/(Pixel*Frame) : 1.743
Stream size : 1.34 GiB (100%)
Writing library : x265 2.5:[Windows][GCC 7.2.0][64 bit] 8bit
Encoding settings : cpuid=1050111 / frame-threads=4 / numa-pools=4 / wpp / no-pmode / no-pme / no-psnr / no-ssim / log-level=2 / input-csp=1 / input-res=3840x2160 / interlace=0 / total-frames=0 / level-idc=0 / high-tier=1 / uhd-bd=0 / ref=5 / no-allow-non-conformance / no-repeat-headers / annexb / no-aud / no-hrd / info / hash=0 / no-temporal-layers / open-gop / min-keyint=25 / keyint=250 / bframes=8 / b-adapt=2 / b-pyramid / bframe-bias=0 / rc-lookahead=40 / lookahead-slices=0 / scenecut=40 / no-intra-refresh / ctu=64 / min-cu-size=8 / rect / amp / max-tu-size=32 / tu-inter-depth=3 / tu-intra-depth=3 / limit-tu=4 / rdoq-level=2 / dynamic-rd=0.00 / no-ssim-rd / signhide / no-tskip / nr-intra=0 / nr-inter=0 / no-constrained-intra / strong-intra-smoothing / max-merge=4 / limit-refs=1 / limit-modes / me=3 / subme=4 / merange=57 / temporal-mvp / weightp / weightb / no-analyze-src-pics / deblock=0:0 / sao / no-sao-non-deblock / rd=6 / no-early-skip / rskip / no-fast-intra / no-tskip-fast / no-cu-lossless / b-intra / rdpenalty=0 / psy-rd=2.00 / psy-rdoq=1.00 / no-rd-refine / analysis-reuse-mode=0 / no-lossless / cbqpoffs=0 / crqpoffs=0 / rc=crf / crf=0.0 / qcomp=0.60 / qpstep=4 / stats-write=0 / stats-read=0 / ipratio=1.40 / pbratio=1.30 / aq-mode=1 / aq-strength=1.00 / cutree / zone-count=0 / no-strict-cbr / qg-size=32 / no-rc-grain / qpmax=69 / qpmin=0 / no-const-vbv / sar=0 / overscan=0 / videoformat=5 / range=0 / colorprim=2 / transfer=2 / colormatrix=2 / chromaloc=0 / display-window=0 / max-cll=0,0 / min-luma=0 / max-luma=255 / log2-max-poc-lsb=8 / vui-timing-info / vui-hrd-info / slices=1 / opt-qp-pps / opt-ref-list-length-pps / no-multi-pass-opt-rps / scenecut-bias=0.05 / no-opt-cu-delta-qp / no-aq-motion / no-hdr / no-hdr-opt / no-dhdr10-opt / analysis-reuse-level=5 / scale-factor=0 / refine-intra=0 / refine-inter=0 / refine-mv=0 / no-limit-sao / ctu-info=0
Codec configuration box : hvcC

Audio
ID : 2
Format : AAC LC
Format/Info : Advanced Audio Codec Low Complexity
Codec ID : mp4a-40-2
Duration : 31 s 936 ms
Bit rate mode : Constant
Bit rate : 192 kb/s
Channel(s) : 2 channels
Channel layout : L R
Sampling rate : 48.0 kHz
Frame rate : 46.875 FPS (1024 SPF)
Compression mode : Lossy
Stream size : 749 KiB (0%)
Default : Yes
Alternate group : 1

Canon Legria HF-R706 test 8k Upscaled Video FUHD




8k test
Canon Legria HF-R706 8k test upscaled video FUHD


Complete name : Canon\8k.mp4
Format : MPEG-4
Format profile : Base Media
Codec ID : isom (isom/iso2/avc1/mp41)
File size : 409 MiB
Duration : 46 s 571 ms
Overall bit rate : 73.7 Mb/s
Writing application : Lavf57.83.100

Video
ID : 1
Format : AVC
Format/Info : Advanced Video Codec
Format profile : High@L5.2
Format settings : CABAC / 3 Ref Frames
Format settings, CABAC : Yes
Format settings, RefFrames : 3 frames
Format settings, GOP : N=1
Codec ID : avc1
Codec ID/Info : Advanced Video Coding
Duration : 46 s 560 ms
Bit rate : 73.5 Mb/s
Nominal bit rate : 5 000 kb/s
Width : 7 680 pixels
Height : 4 320 pixels
Display aspect ratio : 16:9
Frame rate mode : Constant
Frame rate : 25.000 FPS
Color space : YUV
Chroma subsampling : 4:2:0
Bit depth : 8 bits
Scan type : Progressive
Bits/(Pixel*Frame) : 0.089
Stream size : 408 MiB (100%)
Writing library : x264 core 148 r2721M 72d53ab
Encoding settings : cabac=1 / ref=3 / deblock=1:0:0 / analyse=0x3:0x113 / me=hex / subme=7 / psy=1 / psy_rd=1.00:0.00 / mixed_ref=1 / me_range=16 / chroma_me=1 / trellis=1 / 8x8dct=1 / cqm=0 / deadzone=21,11 / fast_pskip=1 / chroma_qp_offset=-2 / threads=4 / lookahead_threads=1 / sliced_threads=0 / nr=0 / decimate=1 / interlaced=0 / bluray_compat=0 / constrained_intra=0 / bframes=0 / weightp=2 / keyint=12 / keyint_min=1 / scenecut=40 / intra_refresh=0 / rc_lookahead=12 / rc=abr / mbtree=1 / bitrate=5000 / ratetol=1.0 / qcomp=0.60 / qpmin=2 / qpmax=30 / qpstep=4 / ip_ratio=1.40 / aq=1:1.00
Codec configuration box : avcC

Audio
ID : 2
Format : AAC LC
Format/Info : Advanced Audio Codec Low Complexity
Codec ID : mp4a-40-2
Duration : 46 s 571 ms
Bit rate mode : Constant
Bit rate : 129 kb/s
Channel(s) : 2 channels
Channel layout : L R
Sampling rate : 48.0 kHz
Frame rate : 46.875 FPS (1024 SPF)
Compression mode : Lossy
Stream size : 731 KiB (0%)
Default : Yes
Alternate group : 1

Flowers 3 : Nikon D3200 Video Test #003 1080 25p 21.9 Mb/s + Tamron 85-210mm f/4.5 FHD





Flowers 3
Camera : Nikon D3200   Video Test #003
Shutter 1250 1080 25p 21.9 Mb/s
Mode M iso 200
Lens : Tamron ZOOM MACRO 1:4.5 85-210mm 55MM BBAR MULTI C.
filmed in MACRO

Complete name : F:\DCIM\103D3200\DSC_7863.MOV
Format : MPEG-4
Format profile : QuickTime
Codec ID : qt 2007.09 (qt /niko)
File size : 84.7 MiB
Duration : 32 s 520 ms
Overall bit rate : 21.8 Mb/s
Encoded date : UTC 2019-04-03 16:20:29

NCDT : NCTG

Video
ID : 1
Format : AVC
Format/Info : Advanced Video Codec
Format profile : High@L4
Format settings : CABAC / 2 Ref Frames
Format settings, CABAC : Yes
Format settings, RefFrames : 2 frames
Format settings, GOP : M=3, N=12
Codec ID : avc1
Codec ID/Info : Advanced Video Coding
Duration : 32 s 520 ms
Bit rate : 20.2 Mb/s
Width : 1 920 pixels
Height : 1 080 pixels
Display aspect ratio : 16:9
Frame rate mode : Constant
Frame rate : 25.000 FPS
Color space : YUV
Chroma subsampling : 4:2:0
Bit depth : 8 bits
Scan type : Progressive
Bits/(Pixel*Frame) : 0.391
Stream size : 78.5 MiB (93%)
Language : English
Encoded date : UTC 2019-04-03 16:20:29

Color range : Full
Color primaries : BT.709
transfer_characteristics_Original : BT.470 System M
Matrix coefficients : BT.601
Codec configuration box : avcC

Audio
ID : 2
Format : PCM
Format settings : Little / Signed
Codec ID : sowt
Duration : 32 s 520 ms
Bit rate mode : Constant
Bit rate : 1 536 kb/s
Channel(s) : 2 channels
Channel layout : L R
Sampling rate : 48.0 kHz
Bit depth : 16 bits
Stream size : 5.95 MiB (7%)
Language : English
Encoded date : UTC 2019-04-03 16:20:29

Popular Posts