Showing posts with label Sony DSC-H300. Show all posts
Showing posts with label Sony DSC-H300. Show all posts

Sunset Nei Pori, Sony DSC-H300 video test #001 9Mb/s 720 30FPS




Sunset Nei Pori, Sony DSC-H300 video test #001 9Mb/s 720 30FPS


Complete name : SONY\DSC-H300\Video\MAH01054.MP4
Format : MPEG-4
Format profile : Sony PSP
Codec ID : MSNV (MSNV/mp42/isom)
File size : 16.1 MiB
Duration : 14 s 515 ms
Overall bit rate mode : Variable
Overall bit rate : 9 329 kb/s
Encoded date : UTC 2017-07-08 20:28:53


Video
ID : 1
Format : AVC
Format/Info : Advanced Video Codec
Format profile : Main@L4
Format settings : CABAC / 2 Ref Frames
Format settings, CABAC : Yes
Format settings, RefFrames : 2 frames
Format settings, GOP : M=1, N=8
Codec ID : avc1
Codec ID/Info : Advanced Video Coding
Duration : 14 s 515 ms
Bit rate mode : Variable
Bit rate : 9 195 kb/s
Maximum bit rate : 16.0 Mb/s
Width : 1 280 pixels
Height : 720 pixels
Display aspect ratio : 16:9
Frame rate mode : Constant
Frame rate : 29.970 (30000/1001) FPS
Color space : YUV
Chroma subsampling : 4:2:0
Bit depth : 8 bits
Scan type : Progressive
Bits/(Pixel*Frame) : 0.333
Stream size : 15.9 MiB (99%)
Encoded date : UTC 2017-07-08 20:28:53
Tagged date : UTC 2017-07-08 20:28:53
Codec configuration box : avcC

Audio
ID : 2
Format : AAC LC
Format/Info : Advanced Audio Codec Low Complexity
Codec ID : mp4a-40-2
Duration : 14 s 507 ms
Bit rate mode : Constant
Bit rate : 128 kb/s
Channel(s) : 2 channels
Channel layout : L R
Sampling rate : 48.0 kHz
Frame rate : 46.875 FPS (1024 SPF)
Compression mode : Lossy
Stream size : 227 KiB (1%)
Encoded date : UTC 2017-07-08 20:28:53

Genova città deserta Seconda parte rimaniamo a casa Μένουμε Σπίτι και εμείς

rimaniamo a casa Seconda parte Genova città deserta #StayHome Γένοβα δεύτερο μέρος Μένουμε Σπίτι και εμείς 2nd Part desert Genoa Geno...