Showing posts with label Cat. Show all posts
Showing posts with label Cat. Show all posts

2 πανέμορφα γατάκια Panasonic HDC-SD9 video test 1080 25p


2 πανέμορφα γατάκια Panasonic HDC-SD9 video test 1080 25p



Πανέμορφα γατάκια 
Panasonic HDC-SD9 video test 1080 25

Don’t forget to click the bell to turn on post notifications!

Nikolaos Instagram: https://www.instagram.com/sakellarisnikolaos/
Twitter: https://twitter.com/SakellarisNiko
Facebook: https://www.facebook.com/nikolaos.sakellaris/
Blog: https://video-photo-blog.blogspot.com/
 
Complete name : PANASONIC\HDC-SD9\00010.MTS 
Format : BDAV 
Format/Info : Blu-ray Video 
File size : 142 MiB 
Duration : 1 min 14 s 
Overall bit rate mode : Variable 
Overall bit rate : 16.0 Mb/s 
Maximum Overall bit rate : 18.0 Mb/s 

Video 
ID : 4113 (0x1011) 
Menu ID : 1 (0x1) 
Format : AVC 
Format/Info : Advanced Video Codec 
Format profile : High@L4 
Format settings : CABAC / 4 Ref Frames 
Format settings, CABAC : Yes 
Format settings, RefFrames : 4 frames 
Format settings, GOP : M=3, N=12 
Codec ID : 27 
Duration : 1 min 14 s 
Bit rate mode : Variable 
Bit rate : 14.9 Mb/s 
Maximum bit rate : 16.8 Mb/s 
Width : 1 920 pixels 
Height : 1 080 pixels 
Display aspect ratio : 16:9 
Frame rate : 25.000 FPS 
Color space : YUV 
Chroma subsampling : 4:2:0 
Bit depth : 8 bits 
Scan type : Interlaced 
Scan type, store method : Separated fields 
Scan order : Top Field First 
Bits/(Pixel*Frame) : 0.288 
Stream size : 132 MiB (93%) 

Audio 
ID : 4352 (0x1100) 
Menu ID : 1 (0x1) 
Format : AC-3 
Format/Info : Audio Coding 3 
Commercial name : Dolby Digital 
Codec ID : 129 
Duration : 1 min 14 s 
Bit rate mode : Constant 
Bit rate : 384 kb/s 
Channel(s) : 6 channels 
Channel layout : L R C LFE Ls Rs 
Sampling rate : 48.0 kHz 
Frame rate : 31.250 FPS (1536 SPF) 
Bit depth : 16 bits 
Compression mode : Lossy 
Delay relative to video : -80 ms 
Stream size : 3.41 MiB (2%) 
Service kind : Complete Main




Panasonic HDC-SD9 video test,Panasonic HDC-SD9 video test 1080 25p,Panasonic HDC-SD9,πανέμορφα γατάκια,Panasonic HDC-SD9 video test 1080




In the park Cat : Xiaomi Yi M1 with Helios-44M-4 58mm f/2 M42 adapted to M4/3 4k




Cat in the park Larissa Greece
Camera : Xiaomi Yi M1 mirrorless Sony IMX269
Lens : Helios-44M-4 58mm f/2 M42 @ f/2
Mode : A ISO 200 EV 0,0
Video Stabilization ON Video 3840x2160 @ 30fps
M42 adapted MFT
Yi M1 M42 adapted video test
M42 adapted M4/3

Complete name : YI M1\VIDEO\PB050115.MP4
Format : MPEG-4
Format profile : Base Media / Version 2
Codec ID : mp42 (mp42/avc1)
File size : 645 MiB
Duration : 1 min 11 s
Overall bit rate mode : Variable
Overall bit rate : 76.2 Mb/s
Encoded date : UTC 2019-11-05 14:06:52
Tagged date : UTC 2019-11-05 14:06:52

Video
ID : 1
Format : AVC
Format/Info : Advanced Video Codec
Format profile : High@L5.1
Format settings : 1 Ref Frames
Format settings, CABAC : No
Format settings, Reference frames : 1 frame
Format settings, GOP : M=1, N=15
Codec ID : avc1
Codec ID/Info : Advanced Video Coding
Duration : 1 min 11 s
Bit rate : 76.0 Mb/s
Width : 3 840 pixels
Height : 2 160 pixels
Display aspect ratio : 16:9
Frame rate mode : Constant
Frame rate : 29.970 (30000/1001) FPS
Color space : YUV
Chroma subsampling : 4:2:0
Bit depth : 8 bits
Scan type : Progressive
Bits/(Pixel*Frame) : 0.306
Stream size : 644 MiB (100%)
Language : English
Encoded date : UTC 2019-11-05 14:06:52
Tagged date : UTC 2019-11-05 14:06:52
Color range : Full
Color primaries : BT.601 NTSC
Transfer characteristics : BT.709
Matrix coefficients : BT.601
Menus : 3
Codec configuration box : avcC

Audio
ID : 2
Format : AAC LC
Format/Info : Advanced Audio Codec Low Complexity
Codec ID : mp4a-40-2
Duration : 1 min 11 s
Source duration : 1 min 11 s
Bit rate mode : Variable
Bit rate : 128 kb/s
Maximum bit rate : 192 kb/s
Channel(s) : 2 channels
Channel layout : L R
Sampling rate : 48.0 kHz
Frame rate : 46.875 FPS (1024 SPF)
Compression mode : Lossy
Stream size : 1.08 MiB (0%)
Source stream size : 1.08 MiB (0%)
Language : English
Encoded date : UTC 2019-11-05 14:06:52

Popular Posts