Showing posts with label COSINON ZOOM MACRO MC F/3.5 70-210mm 67mm. Show all posts
Showing posts with label COSINON ZOOM MACRO MC F/3.5 70-210mm 67mm. Show all posts

Flower : f/8 Samsung NX20 + COSINON ZOOM MACRO MC F/3.5 70-210mm 67mm PK adapted to NX



Flower 1920 1080P 25fps
Camera Samsung NX20   SteadyShot  NO
MF Manual Shoting ISO 100 70mm Macro @ f/8
COSINON F3.5 70-210mm 67mm pentax
 PK adapted to NX


Complete name : NX20\104PHOTO\SAM_4010.MP4
Format : MPEG-4
Format profile : Base Media / Version 2
Codec ID : mp42 (mp42/isom/avc1)
File size : 54.1 MiB
Duration : 32 s 64 ms
Overall bit rate : 14.1 Mb/s

Video
ID : 1
Format : AVC
Format/Info : Advanced Video Codec
Format profile : High@L4.1
Format settings : 2 Ref Frames
Format settings, CABAC : No
Format settings, Reference frames : 2 frames
Format settings, GOP : M=1, N=25
Codec ID : avc1
Codec ID/Info : Advanced Video Coding
Duration : 31 s 670 ms
Bit rate : 14.2 Mb/s
Width : 1 920 pixels
Height : 1 080 pixels
Display aspect ratio : 16:9
Frame rate mode : Constant
Frame rate : 25.000 FPS
Color space : YUV
Chroma subsampling : 4:2:0
Bit depth : 8 bits
Scan type : Progressive
Bits/(Pixel*Frame) : 0.274
Stream size : 53.6 MiB (99%)
Language : English
Codec configuration box : avcC

Audio
ID : 2
Format : AAC LC
Format/Info : Advanced Audio Codec Low Complexity
Codec ID : mp4a-40-2
Duration : 32 s 64 ms
Bit rate mode : Constant
Bit rate : 128 kb/s
Channel(s) : 2 channels
Channel layout : L R
Sampling rate : 32.0 kHz
Frame rate : 31.250 FPS (1024 SPF)
Compression mode : Lossy
Stream size : 495 KiB (1%)
Language : English

Flower : f/5.6 Samsung NX20 + COSINON ZOOM MACRO MC F/3.5 70-210mm 67mm PK to NX



Flower1920 1080P 25fps
Camera Samsung NX20   SteadyShot  NO
MF Manual Shoting ISO 100 70mm Macro @ f/5.6
COSINON F3.5 70-210mm70-210mm 67mm pentax
 PK adapted to NX

Complete name : NX20\104PHOTO\SAM_4010.MP4
Format : MPEG-4
Format profile : Base Media / Version 2
Codec ID : mp42 (mp42/isom/avc1)
File size : 54.1 MiB
Duration : 32 s 64 ms
Overall bit rate : 14.1 Mb/s

Video
ID : 1
Format : AVC
Format/Info : Advanced Video Codec
Format profile : High@L4.1
Format settings : 2 Ref Frames
Format settings, CABAC : No
Format settings, Reference frames : 2 frames
Format settings, GOP : M=1, N=25
Codec ID : avc1
Codec ID/Info : Advanced Video Coding
Duration : 31 s 670 ms
Bit rate : 14.2 Mb/s
Width : 1 920 pixels
Height : 1 080 pixels
Display aspect ratio : 16:9
Frame rate mode : Constant
Frame rate : 25.000 FPS
Color space : YUV
Chroma subsampling : 4:2:0
Bit depth : 8 bits
Scan type : Progressive
Bits/(Pixel*Frame) : 0.274
Stream size : 53.6 MiB (99%)
Language : English
Codec configuration box : avcC

Audio
ID : 2
Format : AAC LC
Format/Info : Advanced Audio Codec Low Complexity
Codec ID : mp4a-40-2
Duration : 32 s 64 ms
Bit rate mode : Constant
Bit rate : 128 kb/s
Channel(s) : 2 channels
Channel layout : L R
Sampling rate : 32.0 kHz
Frame rate : 31.250 FPS (1024 SPF)
Compression mode : Lossy
Stream size : 495 KiB (1%)
Language : English

Flower : f/3.5 Samsung NX20 + COSINON ZOOM MACRO MC F/3.5 70-210mm 67mm



Flower1920 1080P 25fps
Camera Samsung NX20   SteadyShot  NO
MF Manual Shoting ISO 100 70mm Macro @ f/3.5
COSINON F3.5 70-210mm 67mm pentax
 PK adapted to NX

Complete name : NX20\104PHOTO\SAM_4009.MP4
Format : MPEG-4
Format profile : Base Media / Version 2
Codec ID : mp42 (mp42/isom/avc1)
File size : 49.2 MiB
Duration : 32 s 288 ms
Overall bit rate : 12.8 Mb/s

Video
ID : 1
Format : AVC
Format/Info : Advanced Video Codec
Format profile : High@L4.1
Format settings : 2 Ref Frames
Format settings, CABAC : No
Format settings, Reference frames : 2 frames
Format settings, GOP : M=1, N=25
Codec ID : avc1
Codec ID/Info : Advanced Video Coding
Duration : 31 s 950 ms
Bit rate : 12.8 Mb/s
Width : 1 920 pixels
Height : 1 080 pixels
Display aspect ratio : 16:9
Frame rate mode : Constant
Frame rate : 25.000 FPS
Color space : YUV
Chroma subsampling : 4:2:0
Bit depth : 8 bits
Scan type : Progressive
Bits/(Pixel*Frame) : 0.247
Stream size : 48.7 MiB (99%)
Language : English
Codec configuration box : avcC

Audio
ID : 2
Format : AAC LC
Format/Info : Advanced Audio Codec Low Complexity
Codec ID : mp4a-40-2
Duration : 32 s 288 ms
Bit rate mode : Constant
Bit rate : 128 kb/s
Channel(s) : 2 channels
Channel layout : L R
Sampling rate : 32.0 kHz
Frame rate : 31.250 FPS (1024 SPF)
Compression mode : Lossy
Stream size : 499 KiB (1%)
Language : English

Full Moon 18 May 2019 : Samsung NX20 + COSINON ZOOM MACRO MC F/3.5 70-210mm 67mm PK to NX



Full Moon 18 May 2019 1920 810P 24P
Camera Samsung NX20   SteadyShot  NO
MF Manual Shoting ISO 100 210mm @ f/5.6
COSINON F3.5 70-210mm

Lens COSINON ZOOM MACRO MC F/3.5 70-210mm 67mm pentax
 PK adapted to NX


Complete name : NX20\102PHOTO\SAM_2234.MP4
Format : MPEG-4
Format profile : Base Media / Version 2
Codec ID : mp42 (mp42/isom/avc1)
File size : 28.5 MiB
Duration : 1 min 1 s
Overall bit rate : 3 882 kb/s

Video
ID : 1
Format : AVC
Format/Info : Advanced Video Codec
Format profile : High@L4.1
Format settings : 2 Ref Frames
Format settings, CABAC : No
Format settings, Reference frames : 2 frames
Format settings, GOP : M=1, N=24
Codec ID : avc1
Codec ID/Info : Advanced Video Coding
Duration : 1 min 1 s
Bit rate : 3 756 kb/s
Width : 1 920 pixels
Height : 810 pixels
Display aspect ratio : 2.40:1
Frame rate mode : Constant
Frame rate : 24.000 FPS
Color space : YUV
Chroma subsampling : 4:2:0
Bit depth : 8 bits
Scan type : Progressive
Bits/(Pixel*Frame) : 0.101
Stream size : 27.5 MiB (96%)
Language : English
Codec configuration box : avcC

Audio
ID : 2
Format : AAC LC
Format/Info : Advanced Audio Codec Low Complexity
Codec ID : mp4a-40-2
Duration : 1 min 1 s
Bit rate mode : Constant
Bit rate : 128 kb/s
Channel(s) : 2 channels
Channel layout : L R
Sampling rate : 32.0 kHz
Frame rate : 31.250 FPS (1024 SPF)
Compression mode : Lossy
Stream size : 952 KiB (3%)
Language : English

Genova città deserta Seconda parte rimaniamo a casa Μένουμε Σπίτι και εμείς

rimaniamo a casa Seconda parte Genova città deserta #StayHome Γένοβα δεύτερο μέρος Μένουμε Σπίτι και εμείς 2nd Part desert Genoa Geno...