Showing posts with label UHD. Show all posts
Showing posts with label UHD. Show all posts

Dove bird walking : Panasonic Lumix DMC-GX80 4k UHD with SIGMA AF APO MACRO 180 mm 1:5.6 EOS to MFT

 

 

 

Dove bird walking Filming Location: Larissa , Greece. Camera : Panasonic Lumix DMC-GX80 16 Mp Crop factor 2 Lens : SIGMA AF APO MACRO 180 mm f/5.6 Ø52 eos @ f/5.6 360mm equivalent 35mm Mode : A ISO 200 EV 0,0 i-Dynamic HIGH Custo3 Highlight Shadow 0 0 Video Stabilization ON Video 3840x2160 @ 25fps EOS adapted to M4/3 MFT Don’t forget to click the bell to turn on post notifications! Nikolaos Instagram: https://www.instagram.com/sakellarisnikolaos/ Twitter: https://twitter.com/SakellarisNiko Facebook: https://www.facebook.com/nikolaos.sakellaris/ Blog: https://video-photo-blog.blogspot.com/ Complete name : PANASONIC\DMC-GX80\P1110094.MP4 Format : MPEG-4 Format profile : Base Media / Version 2 Codec ID : mp42 (mp42/avc1) File size : 1.07 GiB Duration : 1 min 41 s Overall bit rate mode : Variable Overall bit rate : 90.1 Mb/s Encoded date : UTC 2020-04-12 15:12:44 PANA : Ê Video ID : 1 Format : AVC Format/Info : Advanced Video Codec Format profile : High@L5.1 Format settings : CABAC / 2 Ref Frames Format settings, CABAC : Yes Format settings, RefFrames : 2 frames Codec ID : avc1 Codec ID/Info : Advanced Video Coding Duration : 1 min 41 s Bit rate mode : Variable Bit rate : 89.9 Mb/s Maximum bit rate : 106 Mb/s Width : 3 840 pixels Height : 2 160 pixels Display aspect ratio : 16:9 Frame rate mode : Constant Frame rate : 25.000 FPS Color space : YUV Chroma subsampling : 4:2:0 Bit depth : 8 bits Scan type : Progressive Bits/(Pixel*Frame) : 0.434 Stream size : 1.07 GiB (100%) Encoded date : UTC 2020-04-12 15:12:44 Tagged date : UTC 2020-04-12 15:12:44 Color range : Limited Color primaries : BT.709 Transfer characteristics : BT.709 Matrix coefficients : BT.709 Codec configuration box : avcC Audio ID : 2 Format : AAC LC Format/Info : Advanced Audio Codec Low Complexity Codec ID : mp4a-40-2 Duration : 1 min 41 s Source duration : 1 min 41 s Bit rate mode : Constant Bit rate : 128 kb/s Channel(s) : 2 channels Channel layout : L R Sampling rate : 48.0 kHz Frame rate : 46.875 FPS (1024 SPF) Compression mode : Lossy Stream size : 1.52 MiB (0%) Source stream size : 1.52 MiB (0%)

The Super Pink Moon Xiaomi Yi M1 with SIGMA AF APO MACRO 180 mm f/5.6 EOS to M4/3 MFT 504mm @ 35mm


The Super Pink Moon Xiaomi Yi M1 with SIGMA AF APO MACRO 180 mm f/5.6 EOS to M4/3 MFT 504mm @ 35mm



Tuesday, April 7 2020 THE SUPER PINK MOON yi m1 video test 4k  (UNEDITED VIDEO FILE)
Camera : Xiaomi Yi M1 mirrorless Sony IMX269
Lens : SIGMA AF APO MACRO 180 mm f/5.6 Ø52 eos @ f/5.6 504mm equivalent 35mm 
Mode : A  ISO 200 EV 0,0 center focus
Video Stabilization OFF Video 3840x2160 @ 30fps crop 2.8 at 35mm

Don’t forget to click the bell to turn on post notifications!

Nikolaos Instagram: https://www.instagram.com/sakellarisnikolaos/
Twitter: https://twitter.com/SakellarisNiko
Facebook: https://www.facebook.com/nikolaos.sakellaris/
Blog: https://video-photo-blog.blogspot.com/

Music
TITLE Cast of Pods 
ARTIST Doug Maxwel
https://www.youtube.com/playlist?list=PLzCxunOM5WFJJ5lC12wgHaymz_FBhaVjF
Thank you

Complete name : I:\DCIM\105YICAM\P4080052.MP4 
Format : MPEG-4 
Format profile : Base Media / Version 2 
Codec ID : mp42 (mp42/avc1) 
File size : 67.8 MiB 
Duration : 1 min 59 s 
Overall bit rate mode : Variable 
Overall bit rate : 4 772 kb/s 
Encoded date : UTC 2020-04-08 01:31:13 
Tagged date : UTC 2020-04-08 01:31:13 

Video 
ID : 1 
Format : AVC 
Format/Info : Advanced Video Codec 
Format profile : High@L5.1 
Format settings : 1 Ref Frames 
Format settings, CABAC : No 
Format settings, RefFrames : 1 frame 
Format settings, GOP : M=1, N=15 
Codec ID : avc1 
Codec ID/Info : Advanced Video Coding 
Duration : 1 min 59 s 
Bit rate : 4 636 kb/s 
Width : 3 840 pixels 
Height : 2 160 pixels 
Display aspect ratio : 16:9 
Frame rate mode : Constant 
Frame rate : 29.970 (30000/1001) FPS 
Color space : YUV 
Chroma subsampling : 4:2:0 
Bit depth : 8 bits 
Scan type : Progressive 
Bits/(Pixel*Frame) : 0.019 
Stream size : 65.8 MiB (97%) 
Language : English 
Encoded date : UTC 2020-04-08 01:31:13 
Tagged date : UTC 2020-04-08 01:31:13 
Color range : Full 
Color primaries : BT.601 NTSC 
Transfer characteristics : BT.709 
Matrix coefficients : BT.601 
Menus : 3 
Codec configuration box : avcC 

Audio 
ID : 2 
Format : AAC LC 
Format/Info : Advanced Audio Codec Low Complexity 
Codec ID : mp4a-40-2 
Duration : 1 min 59 s 
Source duration : 1 min 59 s 
Bit rate mode : Variable 
Bit rate : 128 kb/s 
Maximum bit rate : 192 kb/s 
Channel(s) : 2 channels 
Channel layout : L R 
Sampling rate : 48.0 kHz 
Frame rate : 46.875 FPS (1024 SPF) 
Compression mode : Lossy 
Stream size : 1.81 MiB (3%) 
Source stream size : 1.81 MiB (3%) 
Language : English






Tuesday April 7 2020 THE SUPER PINK MOON,
SUPER PINK MOON,April 7 THE SUPER PINK MOON,
2020 THE SUPER PINK MOON,
April 7 2020 THE SUPER PINK MOON,
EOS adapted to M4/3,Yi M1 EOS adapted video test,
Xiaomi Yi M1 SIGMA AF APO MACRO 180 mm 1:5.6,
SIGMA AF APO MACRO 180 mm 1:5.6,
SIGMA AF APO MACRO 180 mm,
Xiaomi Yi M1 EOS adapted,EOS adapted MFT,
3840x2160 @ 30fps,mirrorless Sony IMX269,
super pink moon 4K


Macro focusing 1m Xiaomi Yi M1 with SIGMA AF APO MACRO 180 mm f/5.6 EOS to M4/3 MFT 504mm @ 35mm


Macro focusing 1m Xiaomi Yi M1 with SIGMA AF APO MACRO 180 mm f/5.6 EOS to M4/3 MFT 504mm @ 35mm



Macro focusing 1m  yi m1 video test 4k  (UNEDITED VIDEO FILE)
Camera : Xiaomi Yi M1 mirrorless Sony IMX269
Lens : SIGMA AF APO MACRO 180 mm f/5.6 Ø52 eos @ f/5.6 504mm equivalent 35mm 
Mode : A  ISO 200 EV 0,0
Video Stabilization OFF Video 3840x2160 @ 30fps crop 2.8 at 35mm

Don’t forget to click the bell to turn on post notifications!

Nikolaos Instagram: https://www.instagram.com/sakellarisnikolaos/
Twitter: https://twitter.com/SakellarisNiko
Facebook: https://www.facebook.com/nikolaos.sakellaris/
Blog: https://video-photo-blog.blogspot.com/

Complete name : I:\DCIM\105YICAM\P4070045.MP4 
Format : MPEG-4 
Format profile : Base Media / Version 2 
Codec ID : mp42 (mp42/avc1) 
File size : 617 MiB 
Duration : 1 min 8 s 
Overall bit rate mode : Variable 
Overall bit rate : 76.0 Mb/s 
Encoded date : UTC 2020-04-07 18:09:53 

Video 
ID : 1 
Format : AVC 
Format/Info : Advanced Video Codec 
Format profile : High@L5.1 
Format settings : 1 Ref Frames 
Format settings, CABAC : No 
Format settings, RefFrames : 1 frame 
Format settings, GOP : M=1, N=15 
Codec ID : avc1 
Codec ID/Info : Advanced Video Coding 
Duration : 1 min 8 s 
Bit rate : 75.9 Mb/s 
Width : 3 840 pixels 
Height : 2 160 pixels 
Display aspect ratio : 16:9 
Frame rate mode : Constant 
Frame rate : 29.970 (30000/1001) FPS 
Color space : YUV 
Chroma subsampling : 4:2:0 
Bit depth : 8 bits 
Scan type : Progressive 
Bits/(Pixel*Frame) : 0.305 
Stream size : 616 MiB (100%) 
Language : English 
Color range : Full 
Color primaries : BT.601 NTSC 
Transfer characteristics : BT.709 
Matrix coefficients : BT.601 
Menus : 3 
Codec configuration box : avcC 

Audio 
ID : 2 
Format : AAC LC 
Format/Info : Advanced Audio Codec Low Complexity 
Codec ID : mp4a-40-2 
Duration : 1 min 8 s 
Source duration : 1 min 8 s 
Bit rate mode : Variable 
Bit rate : 128 kb/s 
Maximum bit rate : 192 kb/s 
Channel(s) : 2 channels 
Channel layout : L R 
Sampling rate : 48.0 kHz 
Frame rate : 46.875 FPS (1024 SPF) 
Compression mode : Lossy 
Stream size : 1.03 MiB (0%) 
Source stream size : 1.03 MiB (0%) 
Language : English






Macro focusing 1m,EOS adapted to M4/3,
Yi M1 EOS adapted video test,
Xiaomi Yi M1 SIGMA AF APO MACRO 180 mm 1:5.6,
SIGMA AF APO MACRO 180 mm 1:5.6,
Macro focusing SIGMA AF APO MACRO 180 mm,
Xiaomi Yi M1 EOS adapted,EOS adapted MFT,
3840x2160 @ 30fps,mirrorless Sony IMX269,
Dove Bird 4K


Dove Bird Xiaomi Yi M1 with SIGMA AF APO MACRO 180 mm f/5.6 EOS to M4/3 MFT 504mm @ 35mm 4k


4K Dove Bird Xiaomi Yi M1 with SIGMA AF APO MACRO 180 mm f/5.6 EOS to M4/3 MFT 504mm @ 35mm



Dove Bird  yi m1 video test 4k  (UNEDITED VIDEO FILE)
Camera : Xiaomi Yi M1 mirrorless Sony IMX269
Lens : SIGMA AF APO MACRO 180 mm f/5.6 Ø52 eos @ f/5.6 504mm equivalent 35mm 
Mode : A  ISO 200 EV 0,0
Video Stabilization OFF Video 3840x2160 @ 30fps crop 2.8 at 35mm

Don’t forget to click the bell to turn on post notifications!

Nikolaos Instagram: https://www.instagram.com/sakellarisnikolaos/
Twitter: https://twitter.com/SakellarisNiko
Facebook: https://www.facebook.com/nikolaos.sakellaris/
Blog: https://video-photo-blog.blogspot.com/

Complete name : 05YICAM\P4070042.MP4 
Format : MPEG-4 
Format profile : Base Media / Version 2 
Codec ID : mp42 (mp42/avc1) 
File size : 590 MiB 
Duration : 1 min 5 s 
Overall bit rate mode : Variable 
Overall bit rate : 76.1 Mb/s 
Encoded date : UTC 2020-04-07 18:04:03 

Video 
ID : 1 
Format : AVC 
Format/Info : Advanced Video Codec 
Format profile : High@L5.1 
Format settings : 1 Ref Frames 
Format settings, CABAC : No 
Format settings, RefFrames : 1 frame 
Format settings, GOP : M=1, N=15 
Codec ID : avc1 
Codec ID/Info : Advanced Video Coding 
Duration : 1 min 5 s 
Bit rate : 75.9 Mb/s 
Width : 3 840 pixels 
Height : 2 160 pixels 
Display aspect ratio : 16:9 
Frame rate mode : Constant 
Frame rate : 29.970 (30000/1001) FPS 
Color space : YUV 
Chroma subsampling : 4:2:0 
Bit depth : 8 bits 
Scan type : Progressive 
Bits/(Pixel*Frame) : 0.305 
Stream size : 589 MiB (100%) 
Language : English 
Color range : Full 
Color primaries : BT.601 NTSC 
Transfer characteristics : BT.709 
Matrix coefficients : BT.601 
Menus : 3 
Codec configuration box : avcC 

Audio 
ID : 2 
Format : AAC LC 
Format/Info : Advanced Audio Codec Low Complexity 
Codec ID : mp4a-40-2 
Duration : 1 min 5 s 
Source duration : 1 min 5 s 
Bit rate mode : Variable 
Bit rate : 128 kb/s 
Maximum bit rate : 192 kb/s 
Channel(s) : 2 channels 
Channel layout : L R 
Sampling rate : 48.0 kHz 
Frame rate : 46.875 FPS (1024 SPF) 
Compression mode : Lossy 
Stream size : 1 012 KiB (0%) 
Source stream size : 1 012 KiB (0%) 
Language : English






EOS adapted to M4/3,
Yi M1 EOS adapted video test,
Xiaomi Yi M1 SIGMA AF APO MACRO 180 mm 1:5.6,
SIGMA AF APO MACRO 180 mm 1:5.6,
SIGMA AF APO MACRO 180 mm,
Xiaomi Yi M1 EOS adapted,EOS adapted MFT,
3840x2160 @ 30fps,mirrorless Sony IMX269,
Dove Bird 4K


Genova città deserta Seconda parte rimaniamo a casa Μένουμε Σπίτι και εμείς



rimaniamo a casa Seconda parte Genova città deserta #StayHome
Γένοβα δεύτερο μέρος Μένουμε Σπίτι και εμείς 
2nd Part desert Genoa
Genova deserta
4k upgrade from FHD 1080
genoa desert city

Don’t forget to click the bell to turn on post notifications!

Nikolaos Instagram: https://www.instagram.com/sakellarisnikolaos/
Twitter: https://twitter.com/SakellarisNiko
Facebook: https://www.facebook.com/nikolaos.sakellaris/
Blog: https://video-photo-blog.blogspot.com/


Genova città deserta Prima parte rimaniamo a casa Μένουμε Σπίτι και εμείς



rimaniamo a casa Prima parte Genova città deserta #StayHome
Γένοβα πρώτο μέρος Μένουμε Σπίτι και εμείς 
1st Part desert Genoa
Genova deserta
4k upgrade from FHD 1080
genova city italy  4k
genoa desert city

Don’t forget to click the bell to turn on post notifications!

Nikolaos Instagram: https://www.instagram.com/sakellarisnikolaos/
Twitter: https://twitter.com/SakellarisNiko
Facebook: https://www.facebook.com/nikolaos.sakellaris/
Blog: https://video-photo-blog.blogspot.com/

I


How to update Firmware on Sony NEX-5R camera to version 1.03 from 1.00




this video will help you how to update your NEX 5R camera to the newest firmware.
 on Sony NEX 5R Camera to version 1.03 from 1.00.
 By updating your NEX with the newest firmaware you will add the following features to your NEX 

Provides support for the following Fast Hybrid AF compliant and future compatible E mount lenses:
SELP18105G, SEL35F28Z, SEL55F18Z, SEL2470Z, SEL2870, SEL70200G
Note:For the following lenses, the Fast Hybrid AF is effective only in the central area of the frame.
SEL35F28Z, SEL55F18Z, SEL2470Z, SEL2870, SEL70200G
Provides support for the SEL20F28 and SEL1670Z Fast Hybrid AF compliant lenses
Adds the AF drive system for movies
Note:The AF drive system for movies is added in order to enhance the scalability of future E-mount systems.
Provides support for the following Fast Hybrid AF compliant lenses:
SEL1018, SEL35F18, SELP18200, SEL30M35, SEL50F18, SEL18200LE
Note:When using the SEL30M35, SEL50F18, and SEL18200LE lenses,
 please update the lens firmware to the latest available version.

File Name Update_NEX5RV103.exe
File Version 1.03
File Size 179.51 MB
Release Date 03-18-2014

Don’t forget to click the bell to turn on post notifications!

Nikolaos Instagram: https://www.instagram.com/sakellarisnikolaos/
Twitter: https://twitter.com/SakellarisNiko
Facebook: https://www.facebook.com/nikolaos.sakellaris/
Blog: https://video-photo-blog.blogspot.com/

filmed in 4k with Panasonic Lumix GX-80 & Lumix H-FS14140 14-140mm
Nikolaos Sakellaris


Confirm the firmware version of your camera

Follow the instructions
If the firmware version is Ver.1.03 or later, the update is not required.

Select Menu--) Setup--) Versionon the camera.
The firmware version is displayed as illustrated below.

Note:Please close all other application software before updating the firmware.
Power source for the camera
Fully charged rechargeable battery pack NP-FW50
USB cable supplied with the camera

Download

Do not remove the battery during the update;otherwise,
 the camera may become inoperable due to the sudden power shutdown.
Remove the memory card from the camera beforehand.

Download the Firmware Updater
Make sure that you are logged on as a user with administrative rights.
After reading the disclaimer, click the [Download] button below.
The download of the [Update_NEX5RV103.exe] file (179 MB (188.231.768 bytes)) will start.
Save the file on your computer.

Install
Close all currently running programs on your computer.
Double-click the [Update_NEX5RV103.exe] file you downloaded to start up the Firmware Updater.
 The Firmware Updater window will appear.

According to the instruction on the Firmware Updater window, select Menu--) Setup--)
 USB Connectionon the camera, and check if Mass Storageis selected.
If another mode than Mass Storageis selected, please select Mass Storage.

Connect the camera to the computer with the supplied USB cable, the LCD screen of the camera will turn off.
 Please proceed to the next step.

Click Nexton the Firmware Updater window. In the computer screen the following window will appear:

At the same time the message "Follow computer instructions" will appear on the LCD screen of the camera.
 -From this point don't turn off the camera until the firmware update is completed.
Click Next. 
The current version and the version after the update appear on the lower left part of the Firmware Updater .

Click Nexton the Firmware Updater window.
After resetting, the reconnection of the camera is verified, and the following window appears:

Click Runto start the update. The progress bar will appear while updating (approximately for 15 minutes).
 -don't turn off the camera nor disconnect the USB cable while updating.
When the update is completed, the following window will appear. 
Click Finishand disconnect the USB cable.
Note: after clicking [Finish], be sure to wait for the camera to turn on again
 although there may be cases that it takes a few minutes.

Turn off the camera, remove the battery pack and/or the AC adapter,
 reinsert the battery or reconnect the AC adapter and turn on the camera.
Confirm the firmware version of your camera is Ver 1.03.
On the camera select Menu--) Setup--) Version.
The firmware version is displayed as illustrated below.

Pinios river river Xiaomi Yi M1 with Vivitar-55MM 1:2.8 MC MACRO Ø62 FD adapted to M4/3



Pinios river Larissa Greece Camera : Xiaomi Yi M1 http://bit.ly/33QoqBP mirrorless Sony IMX269 Lens : Vivitar-55MM 1:2.8 MC MACRO Ø62 FD Mode : A ISO 200 EV 0,0 Video Stabilization OFF Video 3840x2160 @ 30fps Don’t forget to click the bell to turn on post notifications! Nikolaos Instagram: https://www.instagram.com/sakellarisnikolaos/ Twitter: https://twitter.com/SakellarisNiko Facebook: https://www.facebook.com/nikolaos.sakellaris/ Blog: https://video-photo-blog.blogspot.com/ FD adapted MFT Yi M1 FD adapted video test FD adapted M4/3 Complete name : F:\PHOTO\XIAOMI\YI M1\P2080104.MP4 Format : MPEG-4 Format profile : Base Media / Version 2 Codec ID : mp42 (mp42/avc1) File size : 925 MiB Duration : 1 min 41 s Overall bit rate mode : Variable Overall bit rate : 76.8 Mb/s Encoded date : UTC 2020-02-08 17:17:48 Video ID : 1 Format : AVC Format/Info : Advanced Video Codec Format profile : High@L5.1 Format settings : 1 Ref Frames Format settings, CABAC : No Format settings, Reference frames : 1 frame Format settings, GOP : M=1, N=15 Codec ID : avc1 Codec ID/Info : Advanced Video Coding Duration : 1 min 41 s Bit rate : 76.6 Mb/s Width : 3 840 pixels Height : 2 160 pixels Display aspect ratio : 16:9 Frame rate mode : Constant Frame rate : 29.970 (30000/1001) FPS Color space : YUV Chroma subsampling : 4:2:0 Bit depth : 8 bits Scan type : Progressive Bits/(Pixel*Frame) : 0.308 Stream size : 924 MiB (100%) Language : English Color range : Full Color primaries : BT.601 NTSC Transfer characteristics : BT.709 Matrix coefficients : BT.601 Menus : 3 Codec configuration box : avcC Audio ID : 2 Format : AAC LC Format/Info : Advanced Audio Codec Low Complexity Codec ID : mp4a-40-2 Duration : 1 min 41 s Source duration : 1 min 41 s Bit rate mode : Variable Bit rate : 128 kb/s Maximum bit rate : 192 kb/s Channel(s) : 2 channels Channel layout : L R Sampling rate : 48.0 kHz Frame rate : 46.875 FPS (1024 SPF) Compression mode : Lossy Stream size : 1.53 MiB (0%) Source stream size : 1.54 MiB (0%) Language : English

Graffiti under tne bridge river Xiaomi Yi M1 with Vivitar-55MM 1:2.8 MC MACRO Ø62 FD adapted to M4/3




Graffiti under tne bridge Pinios river Larissa Greece Camera : Xiaomi Yi M1 http://bit.ly/33QoqBP mirrorless Sony IMX269 Lens : Vivitar-55MM 1:2.8 MC MACRO Ø62 FD Mode : A ISO 200 EV 0,0 Video Stabilization OFF Video 3840x2160 @ 30fps Don’t forget to click the bell to turn on post notifications! Nikolaos Instagram: https://www.instagram.com/sakellarisnikolaos/ Twitter: https://twitter.com/SakellarisNiko Facebook: https://www.facebook.com/nikolaos.sakellaris/ Blog: https://video-photo-blog.blogspot.com/ FD adapted MFT Yi M1 FD adapted video test FD adapted M4/3

Larissa Pinios river Xiaomi Yi M1 with Vivitar-55MM 1:2.8 MC MACRO Ø62 FD adapted to M4/3 77.6 Mb/s




Pinios river Larissa Greece Camera : Xiaomi Yi M1 http://bit.ly/33QoqBP mirrorless Sony IMX269 Lens : Vivitar-55MM 1:2.8 MC MACRO Ø62 FD Mode : A ISO 200 EV 0,0 Video Stabilization OFF Video 3840x2160 @ 30fps Don’t forget to click the bell to turn on post notifications! Nikolaos Instagram: https://www.instagram.com/sakellarisnikolaos/ Twitter: https://twitter.com/SakellarisNiko Facebook: https://www.facebook.com/nikolaos.sakellaris/ Blog: https://video-photo-blog.blogspot.com/ FD adapted MFT Yi M1 FD adapted video test FD adapted M4/3 Complete name : PHOTO\XIAOMI\YI M1\P2080040.MP4 Format : MPEG-4 Format profile : Base Media / Version 2 Codec ID : mp42 (mp42/avc1) File size : 1.12 GiB Duration : 2 min 4 s Overall bit rate mode : Variable Overall bit rate : 77.6 Mb/s Encoded date : UTC 2020-02-08 16:44:45 Video ID : 1 Format : AVC Format/Info : Advanced Video Codec Format profile : High@L5.1 Format settings : 1 Ref Frames Format settings, CABAC : No Format settings, Reference frames : 1 frame Format settings, GOP : M=1, N=15 Codec ID : avc1 Codec ID/Info : Advanced Video Coding Duration : 2 min 4 s Bit rate : 77.5 Mb/s Width : 3 840 pixels Height : 2 160 pixels Display aspect ratio : 16:9 Frame rate mode : Constant Frame rate : 29.970 (30000/1001) FPS Color space : YUV Chroma subsampling : 4:2:0 Bit depth : 8 bits Scan type : Progressive Bits/(Pixel*Frame) : 0.312 Stream size : 1.12 GiB (100%) Language : English Color range : Full Color primaries : BT.601 NTSC Transfer characteristics : BT.709 Matrix coefficients : BT.601 Menus : 3 Codec configuration box : avcC Audio ID : 2 Format : AAC LC Format/Info : Advanced Audio Codec Low Complexity Codec ID : mp4a-40-2 Duration : 2 min 4 s Source duration : 2 min 4 s Bit rate mode : Variable Bit rate : 128 kb/s Maximum bit rate : 192 kb/s Channel(s) : 2 channels Channel layout : L R Sampling rate : 48.0 kHz Frame rate : 46.875 FPS (1024 SPF) Compression mode : Lossy Stream size : 1.88 MiB (0%) Source stream size : 1.88 MiB (0%) Language : English

part2 Larissa Pinios river Turbo-x ACT-200 UHD 4K 30fps 14.0 Mb/s Action Cam




Larissa Pinios river under the bridge Turbo-x ACT-200 UHD 4K 30fps 14.8 Mb/s Action Cam Don’t forget to click the bell to turn on post notifications! Nikolaos Instagram: https://www.instagram.com/sakellarisnikolaos/ Twitter: https://twitter.com/SakellarisNiko Facebook: https://www.facebook.com/nikolaos.sakellaris/ Blog: https://video-photo-blog.blogspot.com/ Complete name : PHOTO\TURBO-X\act-200\video\20200210_040448A.mp4 Format : MPEG-4 Format profile : Base Media Codec ID : isom (isom/iso2/mp41) File size : 875 MiB Duration : 8 min 16 s Overall bit rate mode : Variable Overall bit rate : 14.8 Mb/s Video ID : 1 Format : AVC Format/Info : Advanced Video Codec Format profile : Main@L5.1 Format settings : CABAC / 1 Ref Frames Format settings, CABAC : Yes Format settings, Reference frames : 1 frame Codec ID : avc1 Codec ID/Info : Advanced Video Coding Duration : 8 min 16 s Source duration : 8 min 16 s Bit rate : 14.8 Mb/s Width : 3 840 pixels Height : 2 160 pixels Display aspect ratio : 16:9 Frame rate : 30.000 FPS Color space : YUV Chroma subsampling : 4:2:0 Bit depth : 8 bits Scan type : Progressive Bits/(Pixel*Frame) : 0.059 Stream size : 873 MiB (100%) Source stream size : 873 MiB (100%) Language : English Color range : Limited Color primaries : BT.601 PAL Transfer characteristics : BT.601 Matrix coefficients : BT.470 System B/G mdhd_Duration : 496328 Codec configuration box : avcC Audio ID : 2 Format : AAC LC Format/Info : Advanced Audio Codec Low Complexity Codec ID : mp4a-40-2 Duration : 8 min 16 s Source duration : 8 min 15 s Bit rate mode : Variable Channel(s) : 1 channel Channel layout : C Sampling rate : 8 000 Hz Frame rate : 7.813 FPS (1024 SPF) Compression mode : Lossy Source stream size : 1.00 MiB (0%) Language : English mdhd_Duration : 496328

part1 Larissa Frurio & Saint. Achillius Turbo-x ACT-200 UHD 4K 30fps 14.0 Mb/s Action Cam




Larissa Frurio Saint. Achillius Turbo-x ACT-200 UHD 4K 30fps 14.0 Mb/s Action Cam Don’t forget to click the bell to turn on post notifications! Nikolaos Instagram: https://www.instagram.com/sakellarisnikolaos/ Twitter: https://twitter.com/SakellarisNiko Facebook: https://www.facebook.com/nikolaos.sakellaris/ Blog: https://video-photo-blog.blogspot.com/ Complete name : PHOTO\TURBO-X\act-200\video\20200210_035723A.mp4 Format : MPEG-4 Format profile : Base Media Codec ID : isom (isom/iso2/mp41) File size : 609 MiB Duration : 6 min 1 s Overall bit rate mode : Variable Overall bit rate : 14.1 Mb/s Video ID : 1 Format : AVC Format/Info : Advanced Video Codec Format profile : Main@L5.1 Format settings : CABAC / 1 Ref Frames Format settings, CABAC : Yes Format settings, Reference frames : 1 frame Codec ID : avc1 Codec ID/Info : Advanced Video Coding Duration : 6 min 1 s Source duration : 6 min 1 s Bit rate : 14.1 Mb/s Width : 3 840 pixels Height : 2 160 pixels Display aspect ratio : 16:9 Frame rate : 30.000 FPS Color space : YUV Chroma subsampling : 4:2:0 Bit depth : 8 bits Scan type : Progressive Bits/(Pixel*Frame) : 0.057 Stream size : 607 MiB (100%) Source stream size : 607 MiB (100%) Language : English Color range : Limited Color primaries : BT.601 PAL Transfer characteristics : BT.601 Matrix coefficients : BT.470 System B/G mdhd_Duration : 361329 Codec configuration box : avcC Audio ID : 2 Format : AAC LC Format/Info : Advanced Audio Codec Low Complexity Codec ID : mp4a-40-2 Duration : 6 min 1 s Source duration : 6 min 0 s Bit rate mode : Variable Channel(s) : 1 channel Channel layout : C Sampling rate : 8 000 Hz Frame rate : 7.813 FPS (1024 SPF) Compression mode : Lossy Source stream size : 746 KiB (0%) Language : English mdhd_Duration : 361329

Sunset Birds : Xiaomi Yi M1 with Canon FL 50mm f/1.4 FD adapted to M4/3 UHD 4k test footage




Sunset Birds Larissa Greece Camera : Xiaomi Yi M1 http://bit.ly/33QoqBP mirrorless Sony IMX269 Lens : Canon FL 50mm f/1.4 @ f/1,7 http://bit.ly/2NVlFJP Mode : S 1/100 ISO 200 EV 0,0 Video Stabilization OFF Video 3840x2160 @ 30fps Don’t forget to click the bell to turn on post notifications! Nikolaos Instagram: https://www.instagram.com/sakellarisnikolaos/ Twitter: https://twitter.com/SakellarisNiko Facebook: https://www.facebook.com/nikolaos.sakellaris/ Blog: https://video-photo-blog.blogspot.com/ FD adapted MFT Yi M1 FD adapted video test footage FD adapted M4/3

4k UHD Fireworks new years eve Larissa 2020 πυροτεχνήματα Λάρισα πρωτοχρονιά Lumix DMC-GX80




Fireworks new years eve Larissa 2020 2020 πυροτεχνήματα Λάρισα πρωτοχρονιά Camera : Panasonic Lumix DMC-GX80 Lens: Canon FL 50mm f/1.4 @f/2 video test 4k UHD 3840 x 2160 25fps

Part3 Χριστούγεννα 2019 κεντρική πλατεία Λαρίσης Cinema with s7 edge 4K HDR 25 fps




Χριστούγεννα 2019 Κεντρική πλατεία Λαρίσης Part3 Cinema with s7 edge 4K HDR 25 fps

Part2 Χριστούγεννα 2019 κεντρική πλατεία Λαρίσης Cinema with s7 edge 4K HDR 25 fps




Χριστούγεννα 2019 Κεντρική πλατεία Λαρίσης Part2 Cinema with s7 edge 4K HDR 25 fps

Part1 Χριστούγεννα 2019 κεντρική πλατεία Λαρίσης Cinema with s7 edge 4K HDR 25 fps




Χριστούγεννα 2019 Κεντρική πλατεία Λαρίσης Part1 Cinema with s7 edge 4K HDR 25 fps

Sunset Clouds Canon 250D video test with Helios-44-2 2/58 M42 adapted to EOS 4K @ 25fps sl3




Sunset Clouds Camera : Canon EOS 250d 4K 25p crop 2.6 @ 4K Lens : Helios-44-2 58mm f/2 Ø52 M42 @ f/2 130mm equivalent 35mm Mode A Iso 800 50mm 4k cropped 2.6x video stabilisation OFF canon sl3 adapted Complete name : Desktop\104PHOTO\MVI_7785.MP4 Format : MPEG-4 Format profile : Base Media / Version 2 Codec ID : mp42 (mp42/avc1/CAEP) File size : 929 MiB Duration : 1 min 5 s Overall bit rate : 119 Mb/s Video ID : 1 Format : AVC Format/Info : Advanced Video Codec Format profile : High@L5.1 Format settings : 2 Ref Frames Format settings, CABAC : No Format settings, RefFrames : 2 frames Format settings, GOP : M=3, N=12 Codec ID : avc1 Codec ID/Info : Advanced Video Coding Duration : 1 min 5 s Bit rate : 119 Mb/s Width : 3 840 pixels Height : 2 160 pixels Display aspect ratio : 16:9 Frame rate mode : Constant Frame rate : 25.000 FPS Color space : YUV Chroma subsampling : 4:2:0 Bit depth : 8 bits Scan type : Progressive Bits/(Pixel*Frame) : 0.573 Stream size : 927 MiB (100%) Language : English Color range : Full Color primaries : BT.709 Transfer characteristics : BT.709 Matrix coefficients : BT.709 Codec configuration box : avcC Audio ID : 2 Format : AAC LC Format/Info : Advanced Audio Codec Low Complexity Codec ID : mp4a-40-2 Duration : 1 min 5 s Bit rate mode : Constant Bit rate : 256 kb/s Channel(s) : 2 channels Channel layout : L R Sampling rate : 48.0 kHz Frame rate : 46.875 FPS (1024 SPF) Compression mode : Lossy Stream size : 1.98 MiB (0%) Language : English

Sunset Clouds Canon 250D video test with ARSAT H 50mm 1:2 Nikon AI adapted to EOS 4K @ 25fps sl3




Sunset Clouds Camera : Canon EOS 250d 4K 25p crop 2.6 @ 4K Lens : ARSAT H 50mm f/2 Ø52 Nikon AI @ f/2 130mm equivalent 35mm Mode A Iso 800 50mm 4k cropped 2.6x video stabilisation OFF canon sl3 adapted Complete name : Desktop\104PHOTO\MVI_7771.MP4 Format : MPEG-4 Format profile : Base Media / Version 2 Codec ID : mp42 (mp42/avc1/CAEP) File size : 924 MiB Duration : 1 min 5 s Overall bit rate : 119 Mb/s Video ID : 1 Format : AVC Format/Info : Advanced Video Codec Format profile : High@L5.1 Format settings : 2 Ref Frames Format settings, CABAC : No Format settings, RefFrames : 2 frames Format settings, GOP : M=3, N=12 Codec ID : avc1 Codec ID/Info : Advanced Video Coding Duration : 1 min 5 s Bit rate : 119 Mb/s Width : 3 840 pixels Height : 2 160 pixels Display aspect ratio : 16:9 Frame rate mode : Constant Frame rate : 25.000 FPS Color space : YUV Chroma subsampling : 4:2:0 Bit depth : 8 bits Scan type : Progressive Bits/(Pixel*Frame) : 0.573 Stream size : 922 MiB (100%) Language : English Color range : Full Color primaries : BT.709 Transfer characteristics : BT.709 Matrix coefficients : BT.709 Codec configuration box : avcC Audio ID : 2 Format : AAC LC Format/Info : Advanced Audio Codec Low Complexity Codec ID : mp4a-40-2 Duration : 1 min 5 s Bit rate mode : Constant Bit rate : 256 kb/s Channel(s) : 2 channels Channel layout : L R Sampling rate : 48.0 kHz Frame rate : 46.875 FPS (1024 SPF) Compression mode : Lossy Stream size : 1.97 MiB (0%) Language : English

Central square Larissa. 2019 Christmas tree 🎄 Canon 250D 4K 25p




2019 Christmas tree 🎄 Central square Larissa Camera : Canon EOS 250d 4K 25p Lens : Canon Zoom Lens EF-S 18-55mm f/3.5-5.6 III autofocus ON Mode A Iso 800 18mm 4k cropped 2.6x video stabilisation OFF Complete name : Canon EOS 250D\Video\MVI_7763.MP4 Format : MPEG-4 Format profile : Base Media / Version 2 Codec ID : mp42 (mp42/avc1/CAEP) File size : 1.05 GiB Duration : 1 min 15 s Overall bit rate : 119 Mb/s Encoded date : UTC 2019-12-23 13:57:08 Video ID : 1 Format : AVC Format/Info : Advanced Video Codec Format profile : High@L5.1 Format settings : 2 Ref Frames Format settings, CABAC : No Format settings, Reference frames : 2 frames Format settings, GOP : M=3, N=12 Codec ID : avc1 Codec ID/Info : Advanced Video Coding Duration : 1 min 15 s Bit rate : 119 Mb/s Width : 3 840 pixels Height : 2 160 pixels Display aspect ratio : 16:9 Frame rate mode : Constant Frame rate : 25.000 FPS Color space : YUV Chroma subsampling : 4:2:0 Bit depth : 8 bits Scan type : Progressive Bits/(Pixel*Frame) : 0.572 Stream size : 1.05 GiB (100%) Language : English Color range : Full Color primaries : BT.709 Transfer characteristics : BT.709 Matrix coefficients : BT.709 Codec configuration box : avcC Audio ID : 2 Format : AAC LC Format/Info : Advanced Audio Codec Low Complexity Codec ID : mp4a-40-2 Duration : 1 min 15 s Bit rate mode : Constant Bit rate : 256 kb/s Channel(s) : 2 channels Channel layout : L R Sampling rate : 48.0 kHz Frame rate : 46.875 FPS (1024 SPF) Compression mode : Lossy Stream size : 2.29 MiB (0%) Language : English

Popular Posts