Showing posts with label Canon EF-S 18-55mm f/3.5-5.6 III. Show all posts
Showing posts with label Canon EF-S 18-55mm f/3.5-5.6 III. Show all posts

Central square Larissa. 2019 Christmas tree 🎄 Canon 250D 4K 25p




2019 Christmas tree 🎄 Central square Larissa Camera : Canon EOS 250d 4K 25p Lens : Canon Zoom Lens EF-S 18-55mm f/3.5-5.6 III autofocus ON Mode A Iso 800 18mm 4k cropped 2.6x video stabilisation OFF Complete name : Canon EOS 250D\Video\MVI_7763.MP4 Format : MPEG-4 Format profile : Base Media / Version 2 Codec ID : mp42 (mp42/avc1/CAEP) File size : 1.05 GiB Duration : 1 min 15 s Overall bit rate : 119 Mb/s Encoded date : UTC 2019-12-23 13:57:08 Video ID : 1 Format : AVC Format/Info : Advanced Video Codec Format profile : High@L5.1 Format settings : 2 Ref Frames Format settings, CABAC : No Format settings, Reference frames : 2 frames Format settings, GOP : M=3, N=12 Codec ID : avc1 Codec ID/Info : Advanced Video Coding Duration : 1 min 15 s Bit rate : 119 Mb/s Width : 3 840 pixels Height : 2 160 pixels Display aspect ratio : 16:9 Frame rate mode : Constant Frame rate : 25.000 FPS Color space : YUV Chroma subsampling : 4:2:0 Bit depth : 8 bits Scan type : Progressive Bits/(Pixel*Frame) : 0.572 Stream size : 1.05 GiB (100%) Language : English Color range : Full Color primaries : BT.709 Transfer characteristics : BT.709 Matrix coefficients : BT.709 Codec configuration box : avcC Audio ID : 2 Format : AAC LC Format/Info : Advanced Audio Codec Low Complexity Codec ID : mp4a-40-2 Duration : 1 min 15 s Bit rate mode : Constant Bit rate : 256 kb/s Channel(s) : 2 channels Channel layout : L R Sampling rate : 48.0 kHz Frame rate : 46.875 FPS (1024 SPF) Compression mode : Lossy Stream size : 2.29 MiB (0%) Language : English

Cat in the park Larissa Greece 1080 50fps Canon EOS 250d + Canon Lens EF-S 18-55mm f/3.5-5.6 III




Cat in the park Larissa Greece Camera : Canon EOS 250d Lens : Canon Zoom Lens EF-S 18-55mm f/3.5-5.6 III Mode A Focus MF Canon EOS 250d video test FHD 1080 50fps Complete name : CANON\Canon EOS 250D\MVI_7611.MP4 Format : MPEG-4 Format profile : Base Media / Version 2 Codec ID : mp42 (mp42/avc1/CAEP) File size : 454 MiB Duration : 1 min 3 s Overall bit rate : 60.0 Mb/s Encoded date : UTC 2019-12-03 14:10:46 Tagged date : UTC 2019-12-03 14:10:46 Video ID : 1 Format : AVC Format/Info : Advanced Video Codec Format profile : High@L5.1 Format settings : CABAC / 2 Ref Frames Format settings, CABAC : Yes Format settings, Reference frames : 2 frames Format settings, GOP : M=3, N=24 Codec ID : avc1 Codec ID/Info : Advanced Video Coding Duration : 1 min 3 s Bit rate : 59.7 Mb/s Width : 1 920 pixels Height : 1 080 pixels Display aspect ratio : 16:9 Frame rate mode : Constant Frame rate : 50.000 FPS Color space : YUV Chroma subsampling : 4:2:0 Bit depth : 8 bits Scan type : Progressive Bits/(Pixel*Frame) : 0.576 Stream size : 451 MiB (99%) Language : English Encoded date : UTC 2019-12-03 14:10:46 Tagged date : UTC 2019-12-03 14:10:46 Color range : Full Color primaries : BT.709 Transfer characteristics : BT.709 Matrix coefficients : BT.709 Codec configuration box : avcC Audio ID : 2 Format : AAC LC Format/Info : Advanced Audio Codec Low Complexity Codec ID : mp4a-40-2 Duration : 1 min 3 s Bit rate mode : Constant Bit rate : 256 kb/s Channel(s) : 2 channels Channel layout : L R Sampling rate : 48.0 kHz Frame rate : 46.875 FPS (1024 SPF) Compression mode : Lossy Stream size : 1.91 MiB (0%) Language : English Encoded date : UTC 2019-12-03 14:10:46


Cat in the park Larissa Greece 4K 25fps Canon EOS 250d + Canon Lens EF-S 18-55mm f/3.5-5.6 III





Cat in the park Larissa Greece Camera : Canon EOS 250d Lens : Canon Zoom Lens EF-S 18-55mm f/3.5-5.6 III Mode A Focus MF Canon EOS 250d video test UHD 4K 25fps

V30 A1 UHS-I U3 CLASS10 2:15:47 there was a video test
V30 A1 UHS-I U3 CLASS10
V30 A1 UHS-I U3 CLASS10
V30 A1 UHS-I U3 CLASS10

Complete name : DCIM\101YICAM\MVI_7609.MP4 Format : MPEG-4 Format profile : Base Media / Version 2 Codec ID : mp42 (mp42/avc1/CAEP) File size : 858 MiB Duration : 1 min 0 s Overall bit rate : 119 Mb/s Encoded date : UTC 2019-12-03 14:08:14 Tagged date : UTC 2019-12-03 14:08:14 Video ID : 1 Format : AVC Format/Info : Advanced Video Codec Format profile : High@L5.1 Format settings : 2 Ref Frames Format settings, CABAC : No Format settings, RefFrames : 2 frames Format settings, GOP : M=3, N=12 Codec ID : avc1 Codec ID/Info : Advanced Video Coding Duration : 1 min 0 s Bit rate : 119 Mb/s Width : 3 840 pixels Height : 2 160 pixels Display aspect ratio : 16:9 Frame rate mode : Constant Frame rate : 25.000 FPS Color space : YUV Chroma subsampling : 4:2:0 Bit depth : 8 bits Scan type : Progressive Bits/(Pixel*Frame) : 0.573 Stream size : 856 MiB (100%) Language : English Encoded date : UTC 2019-12-03 14:08:14 Tagged date : UTC 2019-12-03 14:08:14 Color range : Full Color primaries : BT.709 Transfer characteristics : BT.709 Matrix coefficients : BT.709 Codec configuration box : avcC Audio ID : 2 Format : AAC LC Format/Info : Advanced Audio Codec Low Complexity Codec ID : mp4a-40-2 Duration : 1 min 0 s Bit rate mode : Constant Bit rate : 256 kb/s Channel(s) : 2 channels Channel layout : L R Sampling rate : 48.0 kHz Frame rate : 46.875 FPS (1024 SPF) Compression mode : Lossy Stream size : 1.83 MiB (0%) Language : English Encoded date : UTC 2019-12-03 14:08:14

Sunset Larissa Greece- Canon EOS 1200d + Canon Zoom Lens EF-S 18-55mm f/3.5-5.6 III FHD 1080 24fps




Sunset Larissa Greece
Camera : Canon EOS 1200d
Lens : Canon  Zoom Lens EF-S 18-55mm f/3.5-5.6 III
video test FHD 1080 24fps
Complete name DCIM\100CANON\MVI_7138.MOV
Format : MPEG-4
Format profile : QuickTime
Codec ID : qt 2007.09 (qt /CAEP)
File size : 127 MiB
Duration : 30 s 906 ms
Overall bit rate : 34.4 Mb/s
Encoded date : UTC 2019-03-03 18:32:31

Video
ID : 1
Format : AVC
Format/Info : Advanced Video Codec
Format profile : Baseline@L5
Format settings : 1 Ref Frames
Format settings, CABAC : No
Format settings, RefFrames : 1 frame
Format settings, GOP : M=1, N=12
Codec ID : avc1
Codec ID/Info : Advanced Video Coding
Duration : 30 s 906 ms
Bit rate : 32.9 Mb/s
Width : 1 920 pixels
Height : 1 080 pixels
Original height : 1 088 pixels
Display aspect ratio : 16:9
Original display aspect ratio : 16:9
Frame rate mode : Constant
Frame rate : 23.976 (24000/1001) FPS
Color space : YUV
Chroma subsampling : 4:2:0
Bit depth : 8 bits
Scan type : Progressive
Bits/(Pixel*Frame) : 0.661
Stream size : 121 MiB (95%)
Language : English
Encoded date : UTC 2019-03-03 18:32:31
Color range : Full
Color primaries : BT.709
Transfer characteristics : BT.709
Matrix coefficients : BT.601
Codec configuration box : avcC

Audio
ID : 2
Format : PCM
Format settings : Little / Signed
Codec ID : sowt
Duration : 30 s 906 ms
Bit rate mode : Constant
Bit rate : 1 536 kb/s
Channel(s) : 2 channels
Channel layout : L R
Sampling rate : 48.0 kHz
Bit depth : 16 bits
Stream size : 5.66 MiB (4%)
Language : English
Encoded date : UTC 2019-03-03 18:32:31

Genova città deserta Seconda parte rimaniamo a casa Μένουμε Σπίτι και εμείς

rimaniamo a casa Seconda parte Genova città deserta #StayHome Γένοβα δεύτερο μέρος Μένουμε Σπίτι και εμείς 2nd Part desert Genoa Geno...