Sunset Samsung NX Mini EV-NXF1 Picture Wizard Landspape


Sunset Samsung NX Mini EV-NXF1 Picture Wizard Landspape



Sunset  Samsung NX Mini EV-NXF1
 Picture Wizard Landspape
1920x1080P 25P
Camera Samsung NX Mini Samsung EV-NXF1
Lens :Samsung 9mm f3.5 Wide Prime Lens NX Mini
SteadyShot  NO    24mm @ 35mm
mode M manual focus to infinity shutter 1/100 9mm f/3.5 24mm @ 35mm

Don’t forget to click the bell to turn on post notifications!

Nikolaos Instagram: https://www.instagram.com/sakellarisnikolaos/
Twitter: https://twitter.com/SakellarisNiko
Facebook: https://www.facebook.com/nikolaos.sakellaris/
Blog: https://video-photo-blog.blogspot.com/

Complete name : SAMSUNG\NX mini\100PHOTO\SAM_4750.MP4
Format : MPEG-4
Format profile : Base Media / Version 2
Codec ID : mp42 (mp42/avc1)
File size : 111 MiB
Duration : 1 min 6 s
Overall bit rate : 14.1 Mb/s
Encoded date : UTC 2020-04-07 19:15:40
@sec : UNG

Video
ID : 1
Format : AVC
Format/Info : Advanced Video Codec
Format profile : High@L4
Format settings : CABAC / 2 Ref Frames
Format settings, CABAC : Yes
Format settings, RefFrames : 2 frames
Format settings, GOP : M=3, N=12
Codec ID : avc1
Codec ID/Info : Advanced Video Coding
Duration : 1 min 6 s
Bit rate : 13.9 Mb/s
Width : 1 920 pixels
Height : 1 080 pixels
Display aspect ratio : 16:9
Frame rate mode : Constant
Frame rate : 25.000 FPS
Color space : YUV
Chroma subsampling : 4:2:0
Bit depth : 8 bits
Scan type : Progressive
Bits/(Pixel*Frame) : 0.268
Stream size : 109 MiB (99%)
Codec configuration box : avcC

Audio
ID : 2
Format : AAC LC
Format/Info : Advanced Audio Codec Low Complexity
Codec ID : mp4a-40-2
Duration : 1 min 5 s
Bit rate mode : Constant
Bit rate : 128 kb/s
Channel(s) : 1 channel
Channel layout : C
Sampling rate : 44.1 kHz
Frame rate : 43.066 FPS (1024 SPF)
Compression mode : Lossy
Stream size : 1 010 KiB (1%)





2 comments:

  1. Best ever photography blog. Learned a lot form your post thanks a lot. Additionally, we are providing photoshop image editing services like background removal service, clipping path service, image masking, and many others.

    ReplyDelete
  2. Really i appreciate the effort you made to share the knowledge.Drone services west palm beach The topic here i found was really effective to the topic which i was researching for a long time

    ReplyDelete

Popular Posts