1 Depth of field test f/1.4 to F/16 OLYMPUS OM-D E-M10 with Canon FL 50mm f/1.4 FHD 30fps




1 Depth of field test
OLYMPUS\OM-D E-M10 FHD 30fps 
Depth of field test Canon FL 50mm f/1.4  from f/1.4  to F/16
Video Test

OLYMPUS OM-D E-M10 with Canon FL 50mm f/1.4
OLYMPUS OM-D E-M10 with Canon FL 50mm f/1.4



 f/1.4 Canon FL 50mm f/1.4
 f/1.4 Canon FL 50mm f/1.4

f/2 Canon FL 50mm f/1.4
f/2 Canon FL 50mm f/1.4

f/2.8 Canon FL 50mm f/1.4
f/2.8 Canon FL 50mm f/1.4

f/4 Canon FL 50mm f/1.4
f/4 Canon FL 50mm f/1.4

 f/5.6 Canon FL 50mm f/1.4
 f/5.6 Canon FL 50mm f/1.4

 f/8 Canon FL 50mm f/1.4
 f/8 Canon FL 50mm f/1.4

f/11 Canon FL 50mm f/1.4
f/11Canon FL 50mm f/1.4

 f/16 Canon FL 50mm f/1.4
 f/16 Canon FL 50mm f/1.4

Complete name : OLYMPUS\OM-D E-M10\video\PA060075.MOV
Format : MPEG-4
Format profile : QuickTime
Codec ID : qt 2011.07 (qt )
File size : 39.7 MiB
Duration : 27 s 528 ms
Overall bit rate : 12.1 Mb/s
Encoded date : UTC 2019-10-06 13:51:14
Tagged date : UTC 2019-10-06 13:51:14
TAGS : 8"R

Video
ID : 1
Format : AVC
Format/Info : Advanced Video Codec
Format profile : High@L4.1
Format settings : 2 Ref Frames
Format settings, CABAC : No
Format settings, Reference frames : 2 frames
Format settings, GOP : M=3, N=8
Codec ID : avc1
Codec ID/Info : Advanced Video Coding
Duration : 27 s 528 ms
Bit rate : 10.3 Mb/s
Width : 1 920 pixels
Height : 1 080 pixels
Display aspect ratio : 16:9
Frame rate mode : Constant
Frame rate : 29.970 (30000/1001) FPS
Color space : YUV
Chroma subsampling : 4:2:0
Bit depth : 8 bits
Scan type : Progressive
Bits/(Pixel*Frame) : 0.166
Stream size : 33.8 MiB (85%)
Language : Japanese
Encoded date : UTC 2019-10-06 13:51:14
Tagged date : UTC 2019-10-06 13:51:14
Color range : Full
Color primaries : BT.601 NTSC
Transfer characteristics : BT.601
Matrix coefficients : BT.601
Menus : 0
Codec configuration box : avcC

Audio
ID : 2
Format : PCM
Format settings : Little / Signed
Codec ID : sowt
Duration : 27 s 528 ms
Source duration : 27 s 560 ms
Bit rate mode : Constant
Bit rate : 1 536 kb/s
Channel(s) : 2 channels
Channel layout : L R
Sampling rate : 48.0 kHz
Bit depth : 16 bits
Stream size : 5.04 MiB (13%)
Source stream size : 5.05 MiB (13%)
Language : Japanese
Encoded date : UTC 2019-10-06 13:51:14

No comments:

Post a Comment

Popular Posts