Showing posts with label Samsung. Show all posts
Showing posts with label Samsung. Show all posts

Samsung NX Mini 9mm f/3.5 Wide Prime lens firmware update v1.11 upgrade





Samsung NX Mini 9mm lens firmware update Upgrade to v1.11 lens upgrade Don’t forget to click the bell to turn on post notifications! Nikolaos Instagram: https://www.instagram.com/sakellarisnikolaos/ Twitter: https://twitter.com/SakellarisNiko Facebook: https://www.facebook.com/nikolaos.sakellaris/ Blog: https://video-photo-blog.blogspot.com/ Samsung NX Mini 9mm f/3.5 lens Firmware update 1.11 """I you are not shure how to do not do it""" Maybe your camera cannot power-on or have severe damage. A. Use the full charged battery B. Suggested memory card format before upgrade start. C. During the updating process : Do not cut off the power / Do not remove the battery D. It causes the cannot power-on or the severe damage. Finish upgrade : all menu will be reset ------------------------------------------------------------------------ Firmware upgrade method using i-Launcher. Firmware Update Tool ver 1.1.0.12 (MULTI LANGUAGE) https://www.samsung.com/hk_en/support/model/EV-NXF1ZZG1HHK/ Direct download http://org.downloadcenter.samsung.com/downloadfile/ContentsFile.aspx?CDSite=UNI_HK_EN&CttFileID=5679089&CDCttType=FM&ModelType=N&ModelName=NXF1&VPath=FM/201405/20140522144444686/iLauncher_setup.exe&OriginYN=N Download & install i-Launcher Insert sd card & FORMAT with camera. Connect the camera to your computer. From Samsung i-Launcher - Select "Firmware Upgrade" or Automatically "Upgrade window" open if new firmware registered. Click NEXT You can check precautions Click NEXT Firmware download start Once the transfer is complete, click the CLOSE button FIRMWARE is TO sd card. Remove the USB cable from CAMERA. -------------------------------------------------------------- Turn the camera on. Select MENU - Setting -- Device information. Select "Frimware Update" -- Select "Lens Firmware" Select OK Update will start follow below sequence. Firmware version checking

Sunset : Samsung NX Mini with Samsung 9mm f3.5 Wide Prime Lens 1080P 25P





Sunset 28 JAN 2020 1920 1080P 25P Camera Samsung NX Mini SteadyShot NO mode MF Manual Shoting ISO 400 9mm f/3.5 24mm @ 35mm Lens :Samsung 9mm f3.5 Wide Prime Lens NX Mini Don’t forget to click the bell to turn on post notifications! Nikolaos Instagram: https://www.instagram.com/sakellarisnikolaos/ Twitter: https://twitter.com/SakellarisNiko Facebook: https://www.facebook.com/nikolaos.sakellaris/ Blog: https://video-photo-blog.blogspot.com/ Complete name : DCIM\100PHOTO\SAM_0064.MP4 Format : MPEG-4 Format profile : Base Media / Version 2 Codec ID : mp42 (mp42/avc1) File size : 139 MiB Duration : 1 min 22 s Overall bit rate : 14.1 Mb/s Encoded date : UTC 2020-01-28 18:09:32 @sec : UNG Video ID : 1 Format : AVC Format/Info : Advanced Video Codec Format profile : High@L4 Format settings : CABAC / 2 Ref Frames Format settings, CABAC : Yes Format settings, Reference frames : 2 frames Format settings, GOP : M=3, N=12 Codec ID : avc1 Codec ID/Info : Advanced Video Coding Duration : 1 min 22 s Bit rate : 13.9 Mb/s Width : 1 920 pixels Height : 1 080 pixels Display aspect ratio : 16:9 Frame rate mode : Constant Frame rate : 25.000 FPS Color space : YUV Chroma subsampling : 4:2:0 Bit depth : 8 bits Scan type : Progressive Bits/(Pixel*Frame) : 0.269 Stream size : 137 MiB (99%) Codec configuration box : avcC Audio ID : 2 Format : AAC LC Format/Info : Advanced Audio Codec Low Complexity Codec ID : mp4a-40-2 Duration : 1 min 22 s Bit rate mode : Constant Bit rate : 128 kb/s Channel(s) : 1 channel Channel layout : C Sampling rate : 44.1 kHz Frame rate : 43.066 FPS (1024 SPF) Compression mode : Lossy Stream size : 1.24 MiB (1%)

Fireworks new years eve Larissa 2020 πυροτεχνήματα Λάρισα πρωτοχρονιά Samsung NX20




Fireworks new years eve Larissa 2020 2020 πυροτεχνήματα Λάρισα πρωτοχρονιά Camera : Samsung NX20 Crop factor 1.5 Lens : Super Paragon PMC II AUTO 1:3.5 f=24mm Ø52 Canon FD @ f/4 36mm equivalent 35mm Mode : A ISO 800 EV 0,0 Video Stabilization No Video 1920x810 @ 24fps Complete name : Desktop\SAM_4423.MP4 Format : MPEG-4 Format profile : Base Media / Version 2 Codec ID : mp42 (mp42/isom/avc1) File size : 103 MiB Duration : 4 min 20 s Overall bit rate : 3 331 kb/s Video ID : 1 Format : AVC Format/Info : Advanced Video Codec Format profile : High@L4.1 Format settings : 2 Ref Frames Format settings, CABAC : No Format settings, RefFrames : 2 frames Format settings, GOP : M=1, N=24 Codec ID : avc1 Codec ID/Info : Advanced Video Coding Duration : 4 min 20 s Bit rate : 3 198 kb/s Width : 1 920 pixels Height : 810 pixels Display aspect ratio : 2.40:1 Frame rate mode : Constant Frame rate : 24.000 FPS Color space : YUV Chroma subsampling : 4:2:0 Bit depth : 8 bits Scan type : Progressive Bits/(Pixel*Frame) : 0.086 Stream size : 99.2 MiB (96%) Language : English Codec configuration box : avcC Audio ID : 2 Format : AAC LC Format/Info : Advanced Audio Codec Low Complexity Codec ID : mp4a-40-2 Duration : 4 min 20 s Bit rate mode : Constant Bit rate : 128 kb/s Channel(s) : 2 channels Channel layout : L R Sampling rate : 32.0 kHz Frame rate : 31.250 FPS (1024 SPF) Compression mode : Lossy Stream size : 3.92 MiB (4%) Language : English

Part3 Χριστούγεννα 2019 κεντρική πλατεία Λαρίσης Cinema with s7 edge 4K HDR 25 fps




Χριστούγεννα 2019 Κεντρική πλατεία Λαρίσης Part3 Cinema with s7 edge 4K HDR 25 fps

Part2 Χριστούγεννα 2019 κεντρική πλατεία Λαρίσης Cinema with s7 edge 4K HDR 25 fps




Χριστούγεννα 2019 Κεντρική πλατεία Λαρίσης Part2 Cinema with s7 edge 4K HDR 25 fps

Part1 Χριστούγεννα 2019 κεντρική πλατεία Λαρίσης Cinema with s7 edge 4K HDR 25 fps




Χριστούγεννα 2019 Κεντρική πλατεία Λαρίσης Part1 Cinema with s7 edge 4K HDR 25 fps

Sunset Clouds star : Samsung NX20 video test with Helios-44-2 2/58 M42 adapted to NX @ 24fps




Sunset Clouds Larissa Greece Camera : Samsung NX20 Crop factor 1.5 Lens : Helios-44-2 58mm f/2 Ø52 M42 @ f/2 75mm equivalent 35mm Mode : A ISO 400 EV 0,0 Video Stabilization No Video 1920x810 @ 24fps Complete name : Desktop\104PHOTO\SAM_4395.MP4 Format : MPEG-4 Format profile : Base Media / Version 2 Codec ID : mp42 (mp42/isom/avc1) File size : 224 MiB Duration : 2 min 50 s Overall bit rate : 11.0 Mb/s Video ID : 1 Format : AVC Format/Info : Advanced Video Codec Format profile : High@L4.1 Format settings : 2 Ref Frames Format settings, CABAC : No Format settings, RefFrames : 2 frames Format settings, GOP : M=1, N=24 Codec ID : avc1 Codec ID/Info : Advanced Video Coding Duration : 2 min 50 s Bit rate : 10.9 Mb/s Width : 1 920 pixels Height : 810 pixels Display aspect ratio : 2.40:1 Frame rate mode : Constant Frame rate : 24.000 FPS Color space : YUV Chroma subsampling : 4:2:0 Bit depth : 8 bits Scan type : Progressive Bits/(Pixel*Frame) : 0.292 Stream size : 221 MiB (99%) Language : English Codec configuration box : avcC Audio ID : 2 Format : AAC LC Format/Info : Advanced Audio Codec Low Complexity Codec ID : mp4a-40-2 Duration : 2 min 50 s Bit rate mode : Constant Bit rate : 128 kb/s Channel(s) : 2 channels Channel layout : L R Sampling rate : 32.0 kHz Frame rate : 31.250 FPS (1024 SPF) Compression mode : Lossy Stream size : 2.58 MiB (1%) Language : English

@ f/4 Sunset Clouds : Samsung NX20 video test with ARSAT H 50mm 1:2 Nikon AI adapted to NX @ 24fps




Sunset Clouds Larissa Greece Camera : Samsung NX20 Crop factor 1.5 Lens : ARSAT H 50mm f/2 Ø52 Nikon AI @ f/4 75mm equivalent 35mm Mode : A ISO 400 EV 0,0 Video Stabilization No Video 1920x810 @ 24fps Complete name : Desktop\104PHOTO\SAM_4394.MP4 Format : MPEG-4 Format profile : Base Media / Version 2 Codec ID : mp42 (mp42/isom/avc1) File size : 89.6 MiB Duration : 1 min 16 s Overall bit rate : 9 815 kb/s Video ID : 1 Format : AVC Format/Info : Advanced Video Codec Format profile : High@L4.1 Format settings : 2 Ref Frames Format settings, CABAC : No Format settings, RefFrames : 2 frames Format settings, GOP : M=1, N=24 Codec ID : avc1 Codec ID/Info : Advanced Video Coding Duration : 1 min 16 s Bit rate : 9 714 kb/s Width : 1 920 pixels Height : 810 pixels Display aspect ratio : 2.40:1 Frame rate mode : Constant Frame rate : 24.000 FPS Color space : YUV Chroma subsampling : 4:2:0 Bit depth : 8 bits Scan type : Progressive Bits/(Pixel*Frame) : 0.260 Stream size : 88.3 MiB (99%) Language : English Codec configuration box : avcC Audio ID : 2 Format : AAC LC Format/Info : Advanced Audio Codec Low Complexity Codec ID : mp4a-40-2 Duration : 1 min 16 s Bit rate mode : Constant Bit rate : 128 kb/s Channel(s) : 2 channels Channel layout : L R Sampling rate : 32.0 kHz Frame rate : 31.250 FPS (1024 SPF) Compression mode : Lossy Stream size : 1.15 MiB (1%) Language : English

2019 Christmas tree 🎄 Central square Larissa. Gear 360 sm-c200 1080 60p front camera stereo





2019 Christmas tree 🎄 Central square Larissa Gear 360 sm-c200 2016 1080 60p Complete name :SAM_102_0157.mp4 Format : MPEG-4 Format profile : Base Media / Version 2 Codec ID : mp42 (isom/mp42) File size : 981 MiB Duration : 2 min 16 s Overall bit rate mode : Variable Overall bit rate : 60.5 Mb/s Encoded date : UTC 2019-12-21 23:26:45 xyz : +39.6372+022.4150/ Video ID : 1 Format : AVC Format/Info : Advanced Video Codec Format profile : Baseline@L5 Format settings : 1 Ref Frames Format settings, CABAC : No Format settings, Reference frames : 1 frame Format settings, GOP : M=1, N=60 Codec ID : avc1 Codec ID/Info : Advanced Video Coding Duration : 2 min 16 s Bit rate : 60.3 Mb/s Width : 1 920 pixels Height : 1 080 pixels Display aspect ratio : 16:9 Frame rate mode : Variable Frame rate : 59.940 FPS Minimum frame rate : 59.920 FPS Maximum frame rate : 59.960 FPS Color space : YUV Chroma subsampling : 4:2:0 Bit depth : 8 bits Scan type : Progressive Bits/(Pixel*Frame) : 0.485 Stream size : 978 MiB (100%) Title : VideoHandle Language : English mdhd_Duration : 136136 Codec configuration box : avcC Audio ID : 2 Format : AAC LC Format/Info : Advanced Audio Codec Low Complexity Codec ID : mp4a-40-2 Duration : 2 min 16 s Source duration : 2 min 16 s Source_Duration_FirstFrame : 85 ms Bit rate mode : Variable Bit rate : 192 kb/s Channel(s) : 2 channels Channel layout : L R Sampling rate : 48.0 kHz Frame rate : 46.875 FPS (1024 SPF) Compression mode : Lossy Stream size : 3.09 MiB (0%) Source stream size : 3.09 MiB (0%) Title : SoundHandle Language : English mdhd_Duration : 136064

2019 Christmas tree 🎄 Central square Larissa. Gear 360 sm-c200 1440 30p front camera stereo



2019 Christmas tree 🎄 Central.square Larissa Gear 360 sm-c200 2016 1440 30p Complete name : SAM_102_0156.mp4 Format : MPEG-4 Format profile : Base Media / Version 2 Codec ID : mp42 (isom/mp42) File size : 905 MiB Duration : 2 min 5 s Overall bit rate mode : Variable Overall bit rate : 60.4 Mb/s Encoded date : UTC 2019-12-21 23:23:58 xyz : +39.6372+022.4150/ Video ID : 1 Format : AVC Format/Info : Advanced Video Codec Format profile : Baseline@L5 Format settings : 1 Ref Frames Format settings, CABAC : No Format settings, Reference frames : 1 frame Format settings, GOP : M=1, N=30 Codec ID : avc1 Codec ID/Info : Advanced Video Coding Duration : 2 min 5 s Bit rate : 60.2 Mb/s Width : 2 560 pixels Height : 1 440 pixels Display aspect ratio : 16:9 Frame rate mode : Constant Frame rate : 29.970 (30000/1001) FPS Color space : YUV Chroma subsampling : 4:2:0 Bit depth : 8 bits Scan type : Progressive Bits/(Pixel*Frame) : 0.545 Stream size : 903 MiB (100%) Title : VideoHandle Language : English Codec configuration box : avcC Audio ID : 2 Format : AAC LC Format/Info : Advanced Audio Codec Low Complexity Codec ID : mp4a-40-2 Duration : 2 min 5 s Source duration : 2 min 5 s Source_Duration_FirstFrame : 149 ms Bit rate mode : Variable Bit rate : 192 kb/s Channel(s) : 2 channels Channel layout : L R Sampling rate : 48.0 kHz Frame rate : 46.875 FPS (1024 SPF) Compression mode : Lossy Stream size : 2.85 MiB (0%) Source stream size : 2.85 MiB (0%) Title : SoundHandle Language : English mdhd_Duration : 125483

2019 Christmas tree 🎄 Central.square Larissa. 360VR Gear 360 sm-c200 4K




2019 Christmas tree 🎄 Central.square Larissa 360VR Gear 360 sm-c200 2016 4K


Samsung NX1100 with Super Paragon PMC II AUTO 1:3.5 f=24mm Ø52




Pink Rose
Video: with Samsung NX-1100 20.3mp HD 1920 x 834 24fps (1.30)
Mode A ISO 100
Lens: Super Paragon PMC II AUTO 1:3.5 f=24mm @5.6 Canon FD
APERTURE (F) f/3.5
FOCAL LENGTH (MM) f=24mm  (FORMAT 35 mm full frame)
FOCAL LENGTH (MM) f=36mm  (FOCAL LENGTH APS-C)
FILTER DIAMETER (MM)  52mm
MINIMUM FOCUS DISTANCE 0.17m to Infinity.
Samsung NX-1100 NX adapted to CANON FD Mount adapted to NX Samsung

Complete name : I:\DCIM\221PHOTO\06081224.MP4
Format : MPEG-4
Format profile : Base Media / Version 2
Codec ID : mp42 (mp42/isom/avc1)
File size : 82.6 MiB
Duration : 1 min 3 s
Overall bit rate : 10.8 Mb/s

Video
ID : 1
Format : AVC
Format/Info : Advanced Video Codec
Format profile : High@L4.1
Format settings : 2 Ref Frames
Format settings, CABAC : No
Format settings, Reference frames : 2 frames
Format settings, GOP : M=1, N=24
Codec ID : avc1
Codec ID/Info : Advanced Video Coding
Duration : 1 min 3 s
Bit rate : 10.7 Mb/s
Width : 1 920 pixels
Height : 810 pixels
Display aspect ratio : 2.40:1
Frame rate mode : Constant
Frame rate : 24.000 FPS
Color space : YUV
Chroma subsampling : 4:2:0
Bit depth : 8 bits
Scan type : Progressive
Bits/(Pixel*Frame) : 0.288
Stream size : 81.6 MiB (99%)
Language : English
Codec configuration box : avcC

Audio
ID : 2
Format : AAC LC
Format/Info : Advanced Audio Codec Low Complexity
Codec ID : mp4a-40-2
Duration : 1 min 3 s
Bit rate mode : Constant
Bit rate : 128 kb/s
Channel(s) : 2 channels
Channel layout : L R
Sampling rate : 32.0 kHz
Frame rate : 31.250 FPS (1024 SPF)
Compression mode : Lossy
Stream size : 990 KiB (1%)
Language : English

Fireworks new years eve Larissa 2019




Fireworks new years eve Larissa 2019
Samsung NX1100 wirh Canon FL 50mm f/1.4

Complete name : SAMSUNG\NX1100\VIDEO\12121170.MP4
Format : MPEG-4
Format profile : Base Media / Version 2
Codec ID : mp42 (mp42/isom/avc1)
File size : 351 MiB
Duration : 5 min 53 s
Overall bit rate : 8 332 kb/s

Video
ID : 1
Format : AVC
Format/Info : Advanced Video Codec
Format profile : High@L4.1
Format settings : 2 Ref Frames
Format settings, CABAC : No
Format settings, Reference frames : 2 frames
Format settings, GOP : M=1, N=24
Codec ID : avc1
Codec ID/Info : Advanced Video Coding
Duration : 5 min 52 s
Bit rate : 8 201 kb/s
Width : 1 920 pixels
Height : 810 pixels
Display aspect ratio : 2.40:1
Frame rate mode : Constant
Frame rate : 24.000 FPS
Color space : YUV
Chroma subsampling : 4:2:0
Bit depth : 8 bits
Scan type : Progressive
Bits/(Pixel*Frame) : 0.220
Stream size : 345 MiB (98%)
Language : English
Codec configuration box : avcC

Audio
ID : 2
Format : AAC LC
Format/Info : Advanced Audio Codec Low Complexity
Codec ID : mp4a-40-2
Duration : 5 min 53 s
Bit rate mode : Constant
Bit rate : 128 kb/s
Channel(s) : 2 channels
Channel layout : L R
Sampling rate : 32.0 kHz
Frame rate : 31.250 FPS (1024 SPF)
Compression mode : Lossy
Stream size : 5.30 MiB (2%)
Language : English

Moon : Samsung NX20 + PARAGON f/8 500mm f72 + SIGMA TELEMAC VARIO 2X-3X FHD 1080 25fps



Moon 13/OCT/2019
Camera : Samsung NX20
Lens: PARAGON f/8 500mm f72 T2 - @ f/16
Teleconverter : SIGMA TELEMAC VARIO 2X 2.5X 3X  m42
video test FHD 1080 25fps
PARAGON 500mm f/8

Complete name : DCIM\104PHOTO\SAM_4349.MP4
Format : MPEG-4
Format profile : Base Media / Version 2
Codec ID : mp42 (mp42/isom/avc1)
File size : 162 MiB
Duration : 4 min 6 s
Overall bit rate : 5 515 kb/s

Video
ID : 1
Format : AVC
Format/Info : Advanced Video Codec
Format profile : High@L4.1
Format settings : 2 Ref Frames
Format settings, CABAC : No
Format settings, RefFrames : 2 frames
Format settings, GOP : M=1, N=25
Codec ID : avc1
Codec ID/Info : Advanced Video Coding
Duration : 4 min 6 s
Bit rate : 5 386 kb/s
Width : 1 920 pixels
Height : 1 080 pixels
Display aspect ratio : 16:9
Frame rate mode : Constant
Frame rate : 25.000 FPS
Color space : YUV
Chroma subsampling : 4:2:0
Bit depth : 8 bits
Scan type : Progressive
Bits/(Pixel*Frame) : 0.104
Stream size : 158 MiB (98%)
Language : English
Codec configuration box : avcC

Audio
ID : 2
Format : AAC LC
Format/Info : Advanced Audio Codec Low Complexity
Codec ID : mp4a-40-2
Duration : 4 min 6 s
Bit rate mode : Constant
Bit rate : 128 kb/s
Channel(s) : 2 channels
Channel layout : L R
Sampling rate : 32.0 kHz
Frame rate : 31.250 FPS (1024 SPF)
Compression mode : Lossy
Stream size : 3.72 MiB (2%)
Language : English

Moon : Samsung NX20 + PARAGON f/8 500mm f72 FHD 1080 25fps



Moon 13/OCT/2019
Camera : Samsung NX20
Lens: PARAGON f/8 500mm f72 T2 - @ f/16
video test FHD 1080 25fps
PARAGON 500mm f/8



Moon : Samsung NX20 + PHOTAX f/8 500mm f72 (mod) + SIGMA TELEMAC VARIO 2X-3X FHD 810 24fps



Moon 13/OCT/2019
Camera : Samsung NX20
Lens: PHOTAX f/8 500mm f72 T2 - @ f/16 T2 modified removed internal group the two elements it seems to be 400mm
Teleconverter : SIGMA TELEMAC VARIO 2X 2.5X 3X  m42
PHOTAX 500mm f/8 video test FHD 810 24fps
1:8 f= 500mm


Complete name :DCIM\104PHOTO\SAM_4347.MP4
Format : MPEG-4
Format profile : Base Media / Version 2
Codec ID : mp42 (mp42/isom/avc1)
File size : 170 MiB
Duration : 4 min 7 s
Overall bit rate : 5 764 kb/s

Video
ID : 1
Format : AVC
Format/Info : Advanced Video Codec
Format profile : High@L4.1
Format settings : 2 Ref Frames
Format settings, CABAC : No
Format settings, RefFrames : 2 frames
Format settings, GOP : M=1, N=24
Codec ID : avc1
Codec ID/Info : Advanced Video Coding
Duration : 4 min 7 s
Bit rate : 5 633 kb/s
Width : 1 920 pixels
Height : 810 pixels
Display aspect ratio : 2.40:1
Frame rate mode : Constant
Frame rate : 24.000 FPS
Color space : YUV
Chroma subsampling : 4:2:0
Bit depth : 8 bits
Scan type : Progressive
Bits/(Pixel*Frame) : 0.151
Stream size : 166 MiB (98%)
Language : English
Codec configuration box : avcC

Audio
ID : 2
Format : AAC LC
Format/Info : Advanced Audio Codec Low Complexity
Codec ID : mp4a-40-2
Duration : 4 min 7 s
Bit rate mode : Constant
Bit rate : 128 kb/s
Channel(s) : 2 channels
Channel layout : L R
Sampling rate : 32.0 kHz
Frame rate : 31.250 FPS (1024 SPF)
Compression mode : Lossy
Stream size : 3.74 MiB (2%)
Language : English

Moon : Samsung NX20 + PHOTAX f/8 500mm f72 (mod) FHD 810 24fps



Moon 13/OCT/2019
Camera : Samsung NX20
Lens: PHOTAX f/8 500mm f72 T2 - @ f/16 T2 modified removed internal group the two elements it seems to be 400mm
video test FHD 810 24fps
1:8 f= 500mm


Complete name : IDCIM\104PHOTO\SAM_4345.MP4
Format : MPEG-4
Format profile : Base Media / Version 2
Codec ID : mp42 (mp42/isom/avc1)
File size : 187 MiB
Duration : 5 min 8 s
Overall bit rate : 5 090 kb/s

Video
ID : 1
Format : AVC
Format/Info : Advanced Video Codec
Format profile : High@L4.1
Format settings : 2 Ref Frames
Format settings, CABAC : No
Format settings, RefFrames : 2 frames
Format settings, GOP : M=1, N=24
Codec ID : avc1
Codec ID/Info : Advanced Video Coding
Duration : 5 min 8 s
Bit rate : 4 956 kb/s
Width : 1 920 pixels
Height : 810 pixels
Display aspect ratio : 2.40:1
Frame rate mode : Constant
Frame rate : 24.000 FPS
Color space : YUV
Chroma subsampling : 4:2:0
Bit depth : 8 bits
Scan type : Progressive
Bits/(Pixel*Frame) : 0.133
Stream size : 182 MiB (97%)
Language : English
Codec configuration box : avcC

Audio
ID : 2
Format : AAC LC
Format/Info : Advanced Audio Codec Low Complexity
Codec ID : mp4a-40-2
Duration : 5 min 8 s
Bit rate mode : Constant
Bit rate : 128 kb/s
Channel(s) : 2 channels
Channel layout : L R
Sampling rate : 32.0 kHz
Frame rate : 31.250 FPS (1024 SPF)
Compression mode : Lossy
Stream size : 4.65 MiB (2%)
Language : English

Sunset Larissa Greece 2 - Samsung S7 Edge HDR UHD 4k




Sunset Larissa Greece 2
 2/10/2019
Samsung S7 Edge
 HDR  UHD 4k 3840 x 2160

Complete name : PHOTO\SAMSUNG\S7-SM-G935F\VID_20191002_183108.mp4
Format : MPEG-4
Format profile : Base Media / Version 2
Codec ID : mp42 (isom/mp42)
File size : 572 MiB
Duration : 1 min 3 s
Overall bit rate : 75.0 Mb/s
Encoded date : UTC 2019-10-02 15:32:12
xyz : +39.6342+022.4094/
com.android.version : 8.0.0

Video
ID : 1
Format : AVC
Format/Info : Advanced Video Codec
Format profile : High@L5.1
Format settings : 1 Ref Frames
Format settings, CABAC : No
Format settings, Reference frames : 1 frame
Format settings, GOP : M=1, N=48
Codec ID : avc1
Codec ID/Info : Advanced Video Coding
Duration : 1 min 3 s
Bit rate : 74.7 Mb/s
Width : 3 840 pixels
Height : 2 160 pixels
Display aspect ratio : 16:9
Frame rate mode : Variable
Frame rate : 23.910 FPS
Minimum frame rate : 7.997 FPS
Maximum frame rate : 24.364 FPS
Color space : YUV
Chroma subsampling : 4:2:0
Bit depth : 8 bits
Scan type : Progressive
Bits/(Pixel*Frame) : 0.377
Stream size : 570 MiB (100%)
Title : VideoHandle
Language : English
Encoded date : UTC 2019-10-02 15:32:12
Codec configuration box : avcC

Audio
ID : 2
Format : AAC LC
Format/Info : Advanced Audio Codec Low Complexity
Codec ID : mp4a-40-2
Duration : 1 min 3 s
Source duration : 1 min 3 s
Bit rate mode : Constant
Bit rate : 256 kb/s
Channel(s) : 2 channels
Channel layout : L R
Sampling rate : 44.1 kHz
Frame rate : 43.066 FPS (1024 SPF)
Compression mode : Lossy
Stream size : 1.93 MiB (0%)
Source stream size : 1.94 MiB (0%)
Title : SoundHandle
Language : English
Encoded date : UTC 2019-10-02 15:32:12

Sunset Larissa Greece 1 - Samsung S7 Edge SM-G935F HDR UHD 4k




Sunset Larissa Greece
 1/10/2019
Samsung S7 Edge SM-G935F
 HDR  UHD 4k 3840x2160

Complete name : samsung S7 EDGE\194447.mp4
Format : MPEG-4
Format profile : Base Media / Version 2
Codec ID : mp42 (isom/mp42)
File size : 569 MiB
Duration : 1 min 3 s
Overall bit rate : 75.2 Mb/s
Encoded date : UTC 2019-10-01 16:45:50
xyz : +39.6342+022.4094/
com.android.version : 8.0.0

Video
ID : 1
Format : AVC
Format/Info : Advanced Video Codec
Format profile : High@L5.1
Format settings : 1 Ref Frames
Format settings, CABAC : No
Format settings, Reference frames : 1 frame
Format settings, GOP : M=1, N=48
Codec ID : avc1
Codec ID/Info : Advanced Video Coding
Duration : 1 min 3 s
Bit rate : 74.9 Mb/s
Width : 3 840 pixels
Height : 2 160 pixels
Display aspect ratio : 16:9
Frame rate mode : Variable
Frame rate : 23.976 (23976/1000) FPS
Minimum frame rate : 12.000 FPS
Maximum frame rate : 24.265 FPS
Color space : YUV
Chroma subsampling : 4:2:0
Bit depth : 8 bits
Scan type : Progressive
Bits/(Pixel*Frame) : 0.377
Stream size : 567 MiB (100%)
Title : VideoHandle
Language : English
Encoded date : UTC 2019-10-01 16:45:50
Tagged date : UTC 2019-10-01 16:45:50
mdhd_Duration : 63448
Codec configuration box : avcC

Audio
ID : 2
Format : AAC LC
Format/Info : Advanced Audio Codec Low Complexity
Codec ID : mp4a-40-2
Duration : 1 min 3 s
Source duration : 1 min 3 s
Bit rate mode : Constant
Bit rate : 256 kb/s
Channel(s) : 2 channels
Channel layout : L R
Sampling rate : 44.1 kHz
Frame rate : 43.066 FPS (1024 SPF)
Compression mode : Lossy
Stream size : 1.92 MiB (0%)
Source stream size : 1.93 MiB (0%)
Title : SoundHandle
Language : English
Encoded date : UTC 2019-10-01 16:45:50

Clouds Nei Pori Samsung S7 Edge FHD 1080 30p




Clouds Nei Pori  7/2019
Samsung S7 Edge
FHD 1080 30p


Complete name : Camera\20190704_201535.mp4
Format : MPEG-4
Format profile : Base Media / Version 2
Codec ID : mp42 (isom/mp42)
File size : 66.4 MiB
Duration : 32 s 226 ms
Overall bit rate : 17.3 Mb/s
Encoded date : UTC 2019-07-04 17:16:08
Tagged date : UTC 2019-07-04 17:16:08
xyz : +39.9808+022.6442/
com.android.version : 8.0.0

Video
ID : 1
Format : AVC
Format/Info : Advanced Video Codec
Format profile : High@L4
Format settings : CABAC / 1 Ref Frames
Format settings, CABAC : Yes
Format settings, Reference frames : 1 frame
Format settings, GOP : M=1, N=30
Codec ID : avc1
Codec ID/Info : Advanced Video Coding
Duration : 32 s 226 ms
Source duration : 32 s 247 ms
Bit rate : 17.0 Mb/s
Width : 1 920 pixels
Height : 1 080 pixels
Display aspect ratio : 16:9
Frame rate mode : Variable
Frame rate : 30.000 FPS
Minimum frame rate : 18.300 FPS
Maximum frame rate : 30.623 FPS
Color space : YUV
Chroma subsampling : 4:2:0
Bit depth : 8 bits
Scan type : Progressive
Bits/(Pixel*Frame) : 0.273
Stream size : 65.3 MiB (98%)
Source stream size : 65.4 MiB (98%)
Title : VideoHandle
Language : English
Encoded date : UTC 2019-07-04 17:16:08
Tagged date : UTC 2019-07-04 17:16:08
mdhd_Duration : 32226
Codec configuration box : avcC

Audio
ID : 2
Format : AAC LC
Format/Info : Advanced Audio Codec Low Complexity
Codec ID : mp4a-40-2
Duration : 32 s 149 ms
Bit rate mode : Constant
Bit rate : 256 kb/s
Channel(s) : 2 channels
Channel layout : L R
Sampling rate : 48.0 kHz
Frame rate : 46.875 FPS (1024 SPF)
Compression mode : Lossy
Stream size : 1 005 KiB (1%)
Title : SoundHandle
Language : English
Encoded date : UTC 2019-07-04 17:16:08

Genova città deserta Seconda parte rimaniamo a casa Μένουμε Σπίτι και εμείς

rimaniamo a casa Seconda parte Genova città deserta #StayHome Γένοβα δεύτερο μέρος Μένουμε Σπίτι και εμείς 2nd Part desert Genoa Geno...