Showing posts with label 1080p. Show all posts
Showing posts with label 1080p. Show all posts

Movie Tele-converter Fn2 4x Olympus OM-D E-M10 Pigeons with SIGMA AF APO MACRO 180 mm 1:5.6

 

 

 Pigeons birds
Camera Olympus OM-D E-M10
Lens SIGMA AF APO MACRO 180 mm 1:5.6
Movie-.I,S. ON Focal Length INFO 180mm  360 at M4/3 sensor
Fn2 4x Movie Tele-converter 1440mm
Vivid  MF Manual Shooting M FullHD F
iso 100 Shatter speed 1/1000   F/5.6

Don’t forget to click the bell to turn on post notifications!

Nikolaos Instagram: https://www.instagram.com/sakellarisnikolaos/
Twitter: https://twitter.com/SakellarisNiko
Facebook: https://www.facebook.com/nikolaos.sakellaris/
Blog: https://video-photo-blog.blogspot.com/

Complete name : O\OLYMPUS\OM-D E-M10\P4170183.MOV
Format : MPEG-4
Format profile : QuickTime
Codec ID : qt 2011.07 (qt )
File size : 293 MiB
Duration : 1 min 37 s
Overall bit rate : 25.2 Mb/s
Encoded date : UTC 2020-04-17 17:42:43
TAGS : 8"R

Video
ID : 1
Format : AVC
Format/Info : Advanced Video Codec
Format profile : High@L4.1
Format settings : 2 Ref Frames
Format settings, CABAC : No
Format settings, RefFrames : 2 frames
Format settings, GOP : M=3, N=8
Codec ID : avc1
Codec ID/Info : Advanced Video Coding
Duration : 1 min 37 s
Bit rate : 23.6 Mb/s
Width : 1 920 pixels
Height : 1 080 pixels
Display aspect ratio : 16:9
Frame rate mode : Constant
Frame rate : 29.970 (30000/1001) FPS
Color space : YUV
Chroma subsampling : 4:2:0
Bit depth : 8 bits
Scan type : Progressive
Bits/(Pixel*Frame) : 0.379
Stream size : 274 MiB (94%)
Language : Japanese
Color range : Full
Color primaries : BT.601 NTSC
Transfer characteristics : BT.601
Matrix coefficients : BT.601
Menus : 0
Codec configuration box : avcC

Audio
ID : 2
Format : PCM
Format settings : Little / Signed
Codec ID : sowt
Duration : 1 min 37 s
Source duration : 1 min 37 s
Bit rate mode : Constant
Bit rate : 1 536 kb/s
Channel(s) : 2 channels
Channel layout : L R
Sampling rate : 48.0 kHz
Bit depth : 16 bits
Stream size : 17.9 MiB (6%)
Source stream size : 17.9 MiB (6%)
Language : Japanese

Pigeon Olympus OM-D E-M10 4x Movie Tele-converter Fn2 with SIGMA AF APO MACRO 180 mm 1:5.6

 

 

 Dove bird Movie Tele-converter ON Camera Olympus OM-D E-M10 Lens IGMA AF APO MACRO 180 mm 1:5.6 Movie-.I,S. ON Focal Length INFO 180mm 3260 at M4/3 sensor Fn2 4x Movie Tele-converter 1440mm Vivid MF Manual Shooting M FullHD F iso 100 Shatter speed 1/1000 F/5.6 Don’t forget to click the bell to turn on post notifications! Nikolaos Instagram: https://www.instagram.com/sakellarisnikolaos/ Twitter: https://twitter.com/SakellarisNiko Facebook: https://www.facebook.com/nikolaos.sakellaris/ Blog: https://video-photo-blog.blogspot.com/ Complete name : OLYMPUS\OM-D E-M10\video\P4160153.MOV Format : MPEG-4 Format profile : QuickTime Codec ID : qt 2011.07 (qt ) File size : 290 MiB Duration : 1 min 35 s Overall bit rate : 25.6 Mb/s Encoded date : UTC 2020-04-16 18:04:22 TAGS : 8"R Video ID : 1 Format : AVC Format/Info : Advanced Video Codec Format profile : High@L4.1 Format settings : 2 Ref Frames Format settings, CABAC : No Format settings, RefFrames : 2 frames Format settings, GOP : M=3, N=8 Codec ID : avc1 Codec ID/Info : Advanced Video Coding Duration : 1 min 35 s Bit rate : 24.0 Mb/s Width : 1 920 pixels Height : 1 080 pixels Display aspect ratio : 16:9 Frame rate mode : Constant Frame rate : 29.970 (30000/1001) FPS Color space : YUV Chroma subsampling : 4:2:0 Bit depth : 8 bits Scan type : Progressive Bits/(Pixel*Frame) : 0.386 Stream size : 272 MiB (94%) Language : Japanese Color range : Full Color primaries : BT.601 NTSC Transfer characteristics : BT.601 Matrix coefficients : BT.601 Menus : 0 Codec configuration box : avcC Audio ID : 2 Format : PCM Format settings : Little / Signed Codec ID : sowt Duration : 1 min 35 s Source duration : 1 min 35 s Bit rate mode : Constant Bit rate : 1 536 kb/s Channel(s) : 2 channels Channel layout : L R Sampling rate : 48.0 kHz Bit depth : 16 bits Stream size : 17.4 MiB (6%) Source stream size : 17.4 MiB (6%) Language : Japanese

LG 28MT42VF PZ Disassembly broken smashed LCD display 28'' TV Monitor

 

 

 This video is for 28'' TV Monitor LG 28MT42VF PZ led tv and how you can to Disassembly and remove broken LCD display. Attention to small pieces of glass can hurt your hands. First remove all back screws and remove the back plate.After remove all small screws from the front frame. Remove the frame and detach the stickers holding the smashed LCD display. Buy new one if you can find economic 50-60$ max. Don’t forget to click the bell to turn on post notifications! Nikolaos Instagram: https://www.instagram.com/sakellarisnikolaos/ Twitter: https://twitter.com/SakellarisNiko Facebook: https://www.facebook.com/nikolaos.sakellaris/ Blog: https://video-photo-blog.blogspot.com/ I Am a Man Who Will Fight for Your Honor by Chris Zabriskie is licensed under a Creative Commons Attribution license (https://creativecommons.org/licenses/by/4.0/) Source: http://chriszabriskie.com/honor/ Artist: http://chriszabriskie.com/ Thank you 03TQHPL002 G0A0NB04T3872568M1772 715G8524-M01-B00-004K 715G7801-P01-W04-0H2H TBV280227D8X00K10CXC7A63214 LVB280WX220ADE2H0X 750TBV280227D8N000 B280WX220ADE2ELCAAC7A63214 12V = 2A 28" LED=18.9V/735mA 32" LED=23.8V/825mA P28080200 3837024 P 1283 SCA81794890012375 12800WT79J2Y1175 28MT42VF PZ 28'' HD Ready TV Monitor (28''Diagonal) Enjoy both TV and Monitor together Wide Viewing Angle 5W x 2 Stereo Speaker Wall Mount GENERAL Size (Inch / cm) 27.1" / 68.97cmPanel Type Wide Viewing Angle Colour Gamut (CIE1931) 0.68Colour Bit 8bit (6bit+FRC) Colour Depth (Num of Colours) 16.7MPixel Pitch (mm) 0.44475x0.44925 Aspect Ratio 16:9Resolution 1366 x 768 Brightness(cd/m2) 180(typ.), 160(Min.)Contrast Ratio (Original) 1200:1 (GTG) 8msViewing Angle (CR≥10) R/L 178 (Typ.), U/D178 (Typ.) (CR≥10) JACK INPUT/OUTPUT Composite 1Component 1 HDMI Yes (2EA, HDMI1.4)CI Slot Yes USB (Ver.) Yes (USB2.0)Jack Location (Signal Input) Rear/Side (Audio Input) RCA 1Digital(Tuner Input) Yes (DVB-T2/C/S2) Analog PAL/SECAMJack Location(Tuner Input) Rear SPEAKER Type InternalAudio output 5W x 2 POWER Type PSU (58W)Input 100V~240V Normal On (typ.) 34WDC Off (Max) 0.5W FREQUENCY HDMI (H-Frequency) 15.63kHz~67.5kHzHDMI (V-Frequency) 23.976Hz~70.08Hz RESOLUTION PC (HDMI) 1366 x 768Video (HDMI) 480i,576i, 480p, 576p 720p, 1080i, 1080p Component 480i, 576i, 480p, 576p 720p, 1080i, 1080pComposit 480i, 576i CONTROL KEY Key Number (Power Key Included) 1 KeyKey Type Tact LED Colour (On mode) OffLED Colour (Standby) Red [ Key Location ] Bottom OSD SPECIAL FEATURE HDCP YesRemote Control Yes EPG YesTeletext Yes Audio Description (Visual Impaired) YesDivx HD player (USB Media Player) Yes (without DivX codec) Smart Energy saving YesPicture Mode Vivid/ Standard/ Eco/ Cinema/Sports/Game ARC-PC 16:9 / Just Scan / Original / Full Wide / 4:3 / 14:9 / ZoomARC-Video 16:9 / Just Scan / Original / Full Wide / 4:3 / 14:9 / Zoom AVL (Auto Volume) YesAuto / Manual Clock Yes On/ Off Time YesSleep Timer Yes Auto Off / Auto Sleep Yes COLOUR Front Black GlossyB/Cover Black Texture Base Black Hairline+Texture STAND Base Detchable Detachable DIMENSION(W*D*H, MM) Set (with Stand) 635 x 182.4 x 427Set (without Stand) 635 x 77.8 x 387 Box 738 x 130 x 502Wall Mount size (mm) 100x100 WEIGHT(KG) Set (with Stand) 4.1Set (without Stand) 4 Box 5.7 STUFFING Pallet (20ft/40ft/40ft HC) 476 / 1088 / 1088 WRAP Packing Material EPSStacking Type Vertical Stand Packing Type Base DetachBox Printing Type Flexo 1 color Handle No (Hand hole) STANDARD ERP Yes (Class A)CE Yes ACCESSORY Power Cord YesRemote Controller Yes

HWBD1 CHDHY-401 Gopro hero 4 silver edition motherboard 10 pin USB 6 pins broken missing

 

 

 

 A small video of Gopro hero 4 silver edition HWBD1 CHDHY-401 disassembled motherboard has the 10 pin USB with 6 pins broken and missing 50fps 1920 x 1080 16:9 format video with Sony HDR-CX410VE Don’t forget to click the bell to turn on post notifications! Nikolaos Instagram: https://www.instagram.com/sakellarisnikolaos/ Twitter: https://twitter.com/SakellarisNiko Facebook: https://www.facebook.com/nikolaos.sakellaris/ Blog: https://video-photo-blog.blogspot.com/ Music TITLE The Beauty of Love ARTIST Aakash Gandhi https://youtu.be/X5kOSxkL6Lc Thank you Complete name : IAVCHD\BDMV\STREAM\00004.MTS Format : BDAV Format/Info : Blu-ray Video File size : 6.33 GiB Duration : 9 min 54 s Overall bit rate mode : Variable Overall bit rate : 91.5 Mb/s Maximum Overall bit rate : 28.0 Mb/s Recorded date : 2019-11-09 22:22:42+03:00 Writing application : Sony HDR-CX410VE Video ID : 4113 (0x1011) Menu ID : 1 (0x1) Format : AVC Format/Info : Advanced Video Codec Format profile : High@L4.2 Format settings : CABAC / 2 Ref Frames Format settings, CABAC : Yes Format settings, RefFrames : 2 frames Format settings, GOP : M=1, N=12 Codec ID : 27 Duration : 9 min 54 s Bit rate mode : Variable Bit rate : 87.4 Mb/s Maximum bit rate : 26.0 Mb/s Width : 1 920 pixels Height : 1 080 pixels Display aspect ratio : 16:9 Frame rate : 50.000 FPS Color space : YUV Chroma subsampling : 4:2:0 Bit depth : 8 bits Scan type : Progressive Bits/(Pixel*Frame) : 0.843 Stream size : 6.04 GiB (96%) IrisFNumber : 4.000000 Audio ID : 4352 (0x1100) Menu ID : 1 (0x1) Format : AC-3 Format/Info : Audio Coding 3 Commercial name : Dolby Digital Codec ID : 129 Duration : 9 min 54 s Bit rate mode : Constant Bit rate : 448 kb/s Channel(s) : 6 channels Channel layout : L R C LFE Ls Rs Sampling rate : 48.0 kHz Frame rate : 31.250 FPS (1536 SPF) Bit depth : 16 bits Compression mode : Lossy Stream size : 31.7 MiB (0%) Service kind : Complete Main Text ID : 4608 (0x1200) Menu ID : 1 (0x1) Format : PGS Codec ID : 144 Duration : 9 min 53 s

Pink moon rising april 2020 Sony NEX 5N PARAGON f/8 500mm Ø72 T2 to NEX 750mm @ 35mm

 

 

 8 4 2020 Pink moon rising Sony NEX 5N 1080 50p UNEDITED VIDEO FILE) Filming Location: Larissa , Greece. Camera : Sony NEX 5N 16.1 Mp Crop factor 1.5 Lens: PARAGON f/8 500mm Ø72 T2 - @ f/16 Mode : A ISO 100 EV 0,0 center focus Video Stabilization OFF Video 1920x1080 50ps crop 1.5 at 35mm Don’t forget to click the bell to turn on post notifications! Nikolaos Instagram: https://www.instagram.com/sakellarisnikolaos/ Twitter: https://twitter.com/SakellarisNiko Facebook: https://www.facebook.com/nikolaos.sakellaris/ Blog: https://video-photo-blog.blogspot.com/ Music TITLE Reflections ARTIST MK2 https://www.youtube.com/watch?v=Krw642HTCgw&list=PLzCxunOM5WFK2ghyefGBAt06p_CTBIE3L Thank you Complete name : D:\PHOTO\SIONY\NEX-5N\stream\00029.MTS Format : BDAV Format/Info : Blu-ray Video File size : 302 MiB Duration : 1 min 35 s Overall bit rate mode : Variable Overall bit rate : 26.5 Mb/s Maximum Overall bit rate : 28.0 Mb/s Recorded date : 2020-04-08 20:33:44+02:00 Writing application : Sony NEX-5N Video ID : 4113 (0x1011) Menu ID : 1 (0x1) Format : AVC Format/Info : Advanced Video Codec Format profile : High@L4.2 Format settings : CABAC / 2 Ref Frames Format settings, CABAC : Yes Format settings, RefFrames : 2 frames Format settings, GOP : M=1, N=12 Codec ID : 27 Duration : 1 min 35 s Bit rate mode : Variable Bit rate : 25.2 Mb/s Maximum bit rate : 26.0 Mb/s Width : 1 920 pixels Height : 1 080 pixels Display aspect ratio : 16:9 Frame rate : 50.000 FPS Color space : YUV Chroma subsampling : 4:2:0 Bit depth : 8 bits Scan type : Progressive Bits/(Pixel*Frame) : 0.243 Stream size : 287 MiB (95%) IrisFNumber : 0.000000 Audio ID : 4352 (0x1100) Menu ID : 1 (0x1) Format : AC-3 Format/Info : Audio Coding 3 Commercial name : Dolby Digital Codec ID : 129 Duration : 1 min 35 s Bit rate mode : Constant Bit rate : 256 kb/s Channel(s) : 2 channels Channel layout : L R Sampling rate : 48.0 kHz Frame rate : 31.250 FPS (1536 SPF) Bit depth : 16 bits Compression mode : Lossy Stream size : 2.92 MiB (1%) Service kind : Complete Main Text ID : 4608 (0x1200) Menu ID : 1 (0x1) Format : PGS Codec ID : 144 Duration : 1 min 34 s

 

Sunset Samsung NX Mini EV-NXF1 Picture Wizard Vivid

 

 

 

Sunset Samsung NX Mini EV-NXF1 Picture Wizard Vivid 1920x1080P 25P Camera Samsung NX Mini Samsung EV-NXF1 Lens :Samsung 9mm f3.5 Wide Prime Lens NX Mini SteadyShot NO 24mm @ 35mm mode M manual focus to infinity shutter 1/200 9mm f/3.5 24mm @ 35mm Don’t forget to click the bell to turn on post notifications! Nikolaos Instagram: https://www.instagram.com/sakellarisnikolaos/ Twitter: https://twitter.com/SakellarisNiko Facebook: https://www.facebook.com/nikolaos.sakellaris/ Blog: https://video-photo-blog.blogspot.com/ Complete name : SAMSUNG\NX mini\100PHOTO\SAM_4758.MP4 Format : MPEG-4 Format profile : Base Media / Version 2 Codec ID : mp42 (mp42/avc1) File size : 104 MiB Duration : 1 min 6 s Overall bit rate : 13.2 Mb/s Encoded date : UTC 2020-04-07 19:20:04 @sec : UNG Video ID : 1 Format : AVC Format/Info : Advanced Video Codec Format profile : High@L4 Format settings : CABAC / 2 Ref Frames Format settings, CABAC : Yes Format settings, RefFrames : 2 frames Format settings, GOP : M=3, N=12 Codec ID : avc1 Codec ID/Info : Advanced Video Coding Duration : 1 min 6 s Bit rate : 13.1 Mb/s Width : 1 920 pixels Height : 1 080 pixels Display aspect ratio : 16:9 Frame rate mode : Constant Frame rate : 25.000 FPS Color space : YUV Chroma subsampling : 4:2:0 Bit depth : 8 bits Scan type : Progressive Bits/(Pixel*Frame) : 0.252 Stream size : 103 MiB (99%) Codec configuration box : avcC Audio ID : 2 Format : AAC LC Format/Info : Advanced Audio Codec Low Complexity Codec ID : mp4a-40-2 Duration : 1 min 5 s Bit rate mode : Constant Bit rate : 128 kb/s Channel(s) : 1 channel Channel layout : C Sampling rate : 44.1 kHz Frame rate : 43.066 FPS (1024 SPF) Compression mode : Lossy Stream size : 1 012 KiB (1%)

Sunset Samsung NX Mini EV-NXF1 Picture Wizard Landspape


Sunset Samsung NX Mini EV-NXF1 Picture Wizard Landspape



Sunset  Samsung NX Mini EV-NXF1
 Picture Wizard Landspape
1920x1080P 25P
Camera Samsung NX Mini Samsung EV-NXF1
Lens :Samsung 9mm f3.5 Wide Prime Lens NX Mini
SteadyShot  NO    24mm @ 35mm
mode M manual focus to infinity shutter 1/100 9mm f/3.5 24mm @ 35mm

Don’t forget to click the bell to turn on post notifications!

Nikolaos Instagram: https://www.instagram.com/sakellarisnikolaos/
Twitter: https://twitter.com/SakellarisNiko
Facebook: https://www.facebook.com/nikolaos.sakellaris/
Blog: https://video-photo-blog.blogspot.com/

Complete name : SAMSUNG\NX mini\100PHOTO\SAM_4750.MP4
Format : MPEG-4
Format profile : Base Media / Version 2
Codec ID : mp42 (mp42/avc1)
File size : 111 MiB
Duration : 1 min 6 s
Overall bit rate : 14.1 Mb/s
Encoded date : UTC 2020-04-07 19:15:40
@sec : UNG

Video
ID : 1
Format : AVC
Format/Info : Advanced Video Codec
Format profile : High@L4
Format settings : CABAC / 2 Ref Frames
Format settings, CABAC : Yes
Format settings, RefFrames : 2 frames
Format settings, GOP : M=3, N=12
Codec ID : avc1
Codec ID/Info : Advanced Video Coding
Duration : 1 min 6 s
Bit rate : 13.9 Mb/s
Width : 1 920 pixels
Height : 1 080 pixels
Display aspect ratio : 16:9
Frame rate mode : Constant
Frame rate : 25.000 FPS
Color space : YUV
Chroma subsampling : 4:2:0
Bit depth : 8 bits
Scan type : Progressive
Bits/(Pixel*Frame) : 0.268
Stream size : 109 MiB (99%)
Codec configuration box : avcC

Audio
ID : 2
Format : AAC LC
Format/Info : Advanced Audio Codec Low Complexity
Codec ID : mp4a-40-2
Duration : 1 min 5 s
Bit rate mode : Constant
Bit rate : 128 kb/s
Channel(s) : 1 channel
Channel layout : C
Sampling rate : 44.1 kHz
Frame rate : 43.066 FPS (1024 SPF)
Compression mode : Lossy
Stream size : 1 010 KiB (1%)





Sunset Samsung NX Mini EV-NXF1 picture wizard Custom3 A 0 +4 -4


Sunset Samsung NX Mini EV-NXF1 picture wizard Custom3 A 0 +4 -4



Sunset  Samsung NX Mini EV-NXF1
 Picture Wizard Custom3
Color A Saturation 0 Sharpness +4 Contrast -4
1920x1080P 25P
Camera Samsung NX Mini Samsung EV-NXF1
Lens :Samsung 9mm f3.5 Wide Prime Lens NX Mini
SteadyShot  NO    24mm @ 35mm
mode M manual focus to infinity shutter 1/100 9mm f/3.5 24mm @ 35mm

Don’t forget to click the bell to turn on post notifications!

Nikolaos Instagram: https://www.instagram.com/sakellarisnikolaos/
Twitter: https://twitter.com/SakellarisNiko
Facebook: https://www.facebook.com/nikolaos.sakellaris/
Blog: https://video-photo-blog.blogspot.com/

Complete name : SAMSUNG\NX mini\100PHOTO\SAM_4749.MP4 
Format : MPEG-4 
Format profile : Base Media / Version 2 
Codec ID : mp42 (mp42/avc1) 
File size : 105 MiB 
Duration : 1 min 5 s 
Overall bit rate : 13.4 Mb/s 
Encoded date : UTC 2020-04-07 19:14:06 
@sec : UNG 

Video 
ID : 1 
Format : AVC 
Format/Info : Advanced Video Codec 
Format profile : High@L4 
Format settings : CABAC / 2 Ref Frames 
Format settings, CABAC : Yes 
Format settings, RefFrames : 2 frames 
Format settings, GOP : M=3, N=12 
Codec ID : avc1 
Codec ID/Info : Advanced Video Coding 
Duration : 1 min 5 s 
Bit rate : 13.2 Mb/s 
Width : 1 920 pixels 
Height : 1 080 pixels 
Display aspect ratio : 16:9 
Frame rate mode : Constant 
Frame rate : 25.000 FPS 
Color space : YUV 
Chroma subsampling : 4:2:0 
Bit depth : 8 bits 
Scan type : Progressive 
Bits/(Pixel*Frame) : 0.255 
Stream size : 103 MiB (99%) 
Codec configuration box : avcC 

Audio 
ID : 2 
Format : AAC LC 
Format/Info : Advanced Audio Codec Low Complexity 
Codec ID : mp4a-40-2 
Duration : 1 min 5 s 
Bit rate mode : Constant 
Bit rate : 128 kb/s 
Channel(s) : 1 channel 
Channel layout : C 
Sampling rate : 44.1 kHz 
Frame rate : 43.066 FPS (1024 SPF) 
Compression mode : Lossy 
Stream size : 1 008 KiB (1%)









Larissa limanaki Pinios river Samsung NX Mini EV-NXF1 with 9mm f3.5 Wide Prime Lens 1080P 25P


Larissa limanaki Pinios river Samsung NX Mini EV-NXF1 with 9mm f3.5 Wide Prime Lens 1080P 25P



Larissa limanaki Pinios river  7-2-2020 1920x1080P 25P
Camera Samsung NX Mini   Samsung EV-NXF1
Lens :Samsung 9mm f3.5 Wide Prime Lens NX Mini
SteadyShot  NO    24mm @ 35mm
mode AUTO autofocus 9mm f/3.5 24mm @ 35mm

Don’t forget to click the bell to turn on post notifications!

Nikolaos Instagram: https://www.instagram.com/sakellarisnikolaos/
Twitter: https://twitter.com/SakellarisNiko
Facebook: https://www.facebook.com/nikolaos.sakellaris/
Blog: https://video-photo-blog.blogspot.com/

Complete name : PHOTO\SAMSUNG\NX mini\100PHOTO\SAM_0270.MP4 
Format : MPEG-4 
Format profile : Base Media / Version 2 
Codec ID : mp42 (mp42/avc1) 
File size : 118 MiB 
Duration : 1 min 5 s 
Overall bit rate : 15.0 Mb/s 
Encoded date : UTC 2020-02-07 15:57:32 
@sec : UNG 

Video 
ID : 1 
Format : AVC 
Format/Info : Advanced Video Codec 
Format profile : High@L4 
Format settings : CABAC / 2 Ref Frames 
Format settings, CABAC : Yes 
Format settings, RefFrames : 2 frames 
Format settings, GOP : M=3, N=12 
Codec ID : avc1 
Codec ID/Info : Advanced Video Coding 
Duration : 1 min 5 s 
Bit rate : 14.8 Mb/s 
Width : 1 920 pixels 
Height : 1 080 pixels 
Display aspect ratio : 16:9 
Frame rate mode : Constant 
Frame rate : 25.000 FPS 
Color space : YUV 
Chroma subsampling : 4:2:0 
Bit depth : 8 bits 
Scan type : Progressive 
Bits/(Pixel*Frame) : 0.286 
Stream size : 116 MiB (99%) 
Codec configuration box : avcC 

Audio 
ID : 2 
Format : AAC LC 
Format/Info : Advanced Audio Codec Low Complexity 
Codec ID : mp4a-40-2 
Duration : 1 min 5 s 
Bit rate mode : Constant 
Bit rate : 128 kb/s 
Channel(s) : 1 channel 
Channel layout : C 
Sampling rate : 44.1 kHz 
Frame rate : 43.066 FPS (1024 SPF) 
Compression mode : Lossy 
Stream size : 1 006 KiB (1%)






Samsung NX Mini with Samsung 9mm f3.5 Wide Prime Lens,
Samsung NX Mini,
Samsung 9mm f3.5 Wide Prime Lens NX Mini,
Samsung 9mm f3.5 Wide Prime Lens,
Samsung EV-NXF1


Super pink moon april 2020 Sony NEX 5R 2.4x zoom PARAGON f/8 500mm Ø72 T2 to NEX 750mm @ 35mm


Super pink moon april 2020 Sony NEX 5R 2.4x digital zoom PARAGON f/8 500mm Ø72 T2 to NEX 750mm @ 35mm



2.4x digital zoom  THE SUPER PINK MOON Sony NEX 5R 1080 50p UNEDITED VIDEO FILE) 7 4 2020
Filming Location: Larissa , Greece.
Camera : Sony NEX 5R 16.1 Mp 
Crop factor 1.5
Lens: PARAGON f/8 500mm Ø72 T2 - @ f/16 
Mode : A  ISO 100 EV 0,0 center focus
Video Stabilization OFF Video 1920x1080 50ps crop 1.5 at 35mm

Don’t forget to click the bell to turn on post notifications!

Nikolaos Instagram: https://www.instagram.com/sakellarisnikolaos/
Twitter: https://twitter.com/SakellarisNiko
Facebook: https://www.facebook.com/nikolaos.sakellaris/
Blog: https://video-photo-blog.blogspot.com/

Music
TITLE A Singular Perversion - Darkness
ARTIST Kevin MacLeod
https://www.youtube.com/watch?v=Lw1QRAoae2w
Thank you
 
Complete name : AVCHD\BDMV\STREAM\00127.MTS 
Format : BDAV 
Format/Info : Blu-ray Video 
File size : 103 MiB 
Duration : 32 s 571 ms 
Overall bit rate mode : Variable 
Overall bit rate : 26.4 Mb/s 
Maximum Overall bit rate : 28.0 Mb/s 
Recorded date : 2020-04-08 02:04:28+02:00 
Writing application : Sony NEX-5R 

Video 
ID : 4113 (0x1011) 
Menu ID : 1 (0x1) 
Format : AVC 
Format/Info : Advanced Video Codec 
Format profile : High@L4.2 
Format settings : CABAC / 2 Ref Frames 
Format settings, CABAC : Yes 
Format settings, RefFrames : 2 frames 
Format settings, GOP : M=1, N=12 
Codec ID : 27 
Duration : 32 s 640 ms 
Bit rate mode : Variable 
Bit rate : 25.1 Mb/s 
Maximum bit rate : 26.0 Mb/s 
Width : 1 920 pixels 
Height : 1 080 pixels 
Display aspect ratio : 16:9 
Frame rate : 50.000 FPS 
Color space : YUV 
Chroma subsampling : 4:2:0 
Bit depth : 8 bits 
Scan type : Progressive 
Bits/(Pixel*Frame) : 0.242 
Stream size : 97.6 MiB (95%) 
IrisFNumber : 0.000000 

Audio 
ID : 4352 (0x1100) 
Menu ID : 1 (0x1) 
Format : AC-3 
Format/Info : Audio Coding 3 
Commercial name : Dolby Digital 
Codec ID : 129 
Duration : 32 s 640 ms 
Bit rate mode : Constant 
Bit rate : 256 kb/s 
Channel(s) : 2 channels 
Channel layout : L R 
Sampling rate : 48.0 kHz 
Frame rate : 31.250 FPS (1536 SPF) 
Bit depth : 16 bits 
Compression mode : Lossy 
Stream size : 1 020 KiB (1%) 
Service kind : Complete Main 

Text 
ID : 4608 (0x1200) 
Menu ID : 1 (0x1) 
Format : PGS 
Codec ID : 144 
Duration : 32 s 95 ms






Super pink moon april 2020,
Tuesday April 7 2020 THE SUPER PINK MOON,
SUPER PINK MOON,April 7 THE SUPER PINK MOON,
2020 THE SUPER PINK MOON,
April 7 2020 THE SUPER PINK MOON,
Sony NEX-5R with PARAGON f/8 500mm,T2 adapted to NEX,
Sony NEX 5R adapted to T2,
Sony NEX 5R PARAGON f/8 500mm,Full moon Sony NEX 5R,
Sony NEX 5R in mode M iso 100 1/500,
Full moon sony nex 5R,
Full moon,PARAGON f/8 500mm


Super pink moon april 2020 Sony NEX 5R SIGMA DL ZOOM 75-300mm f/4--5.6 Ø55 OM to NEX 450mm @ 35mm


Super pink moon april 2020 Sony NEX 5R SIGMA DL ZOOM 75-300mm f/4--5.6 Ø55 OM to NEX 450mm @ 35mm



7 4 2020 THE SUPER PINK MOON Sony NEX 5R 1080 50p UNEDITED VIDEO FILE)
Full moon Creative Style  Crtv-S Portrait -3-3-3 
Filming Location: Larissa , Greece.
Camera : Sony NEX 5R 16.1 Mp 
Crop factor 1.5
Lens SIGMA DL ZOOM 75-300mm  f/4--5.6 Ø55  @ f/5.6  450mm @ 35mm
Mode : A  ISO 100 EV 0,0 center focus
Video Stabilization OFF Video 1920x1080 50ps crop 1.5 at 35mm

Don’t forget to click the bell to turn on post notifications!

Nikolaos Instagram: https://www.instagram.com/sakellarisnikolaos/
Twitter: https://twitter.com/SakellarisNiko
Facebook: https://www.facebook.com/nikolaos.sakellaris/
Blog: https://video-photo-blog.blogspot.com/

Music
TITLE Reflections  
ARTIST MK2
https://www.youtube.com/watch?v=Krw642HTCgw&list=PLzCxunOM5WFK2ghyefGBAt06p_CTBIE3L
Thank you

Complete name : IAVCHD\BDMV\STREAM\00124.MTS 
Format : BDAV 
Format/Info : Blu-ray Video 
File size : 291 MiB 
Duration : 1 min 32 s 
Overall bit rate mode : Variable 
Overall bit rate : 26.5 Mb/s 
Maximum Overall bit rate : 28.0 Mb/s 
Recorded date : 2020-04-08 01:48:58+02:00 
Writing application : Sony NEX-5R 

Video 
ID : 4113 (0x1011) 
Menu ID : 1 (0x1) 
Format : AVC 
Format/Info : Advanced Video Codec 
Format profile : High@L4.2 
Format settings : CABAC / 2 Ref Frames 
Format settings, CABAC : Yes 
Format settings, RefFrames : 2 frames 
Format settings, GOP : M=1, N=12 
Codec ID : 27 
Duration : 1 min 32 s 
Bit rate mode : Variable 
Bit rate : 25.2 Mb/s 
Maximum bit rate : 26.0 Mb/s 
Width : 1 920 pixels 
Height : 1 080 pixels 
Display aspect ratio : 16:9 
Frame rate : 50.000 FPS 
Color space : YUV 
Chroma subsampling : 4:2:0 
Bit depth : 8 bits 
Scan type : Progressive 
Bits/(Pixel*Frame) : 0.243 
Stream size : 277 MiB (95%) 
IrisFNumber : 0.000000 

Audio 
ID : 4352 (0x1100) 
Menu ID : 1 (0x1) 
Format : AC-3 
Format/Info : Audio Coding 3 
Commercial name : Dolby Digital 
Codec ID : 129 
Duration : 1 min 32 s 
Bit rate mode : Constant 
Bit rate : 256 kb/s 
Channel(s) : 2 channels 
Channel layout : L R 
Sampling rate : 48.0 kHz 
Frame rate : 31.250 FPS (1536 SPF) 
Bit depth : 16 bits 
Compression mode : Lossy 
Stream size : 2.81 MiB (1%) 
Service kind : Complete Main 

Text 
ID : 4608 (0x1200) 
Menu ID : 1 (0x1) 
Format : PGS 
Codec ID : 144 
Duration : 1 min 31 s






SIGMA DL ZOOM 75-300mm,DL ZOOM 75-300mm,
SIGMA DL ZOOM,75-300mm f/4--5.6,Full Moon,
SIGMA DL ZOOM 75-300mm f/4--5.6 55mm,
DL ZOOM 75-300mm f/4--5.6,FHD,
Super pink moon april 2020,
Tuesday April 7 2020 THE SUPER PINK MOON,
SUPER PINK MOON,April 7 THE SUPER PINK MOON,
2020 THE SUPER PINK MOON,
April 7 2020 THE SUPER PINK MOON,
OM adapted to NEX,
Sony NEX 5R SIGMA DL ZOOM 75-300mm,
Full moon Sony NEX 5R,
Full moon sony nex 5R,
Full moon,Sony NEX 5R


Super pink moon april 2020 Sony NEX 5N PARAGON f/8 500mm Ø72 T2 to NEX 750mm @ 35mm


Super pink moon april 2020 Sony NEX 5N PARAGON f/8 500mm Ø72 T2 to NEX 750mm @ 35mm



7 4 2020 THE SUPER PINK MOON Sony NEX 5N 1080 50p UNEDITED VIDEO FILE)
Filming Location: Larissa , Greece.
Camera : Sony NEX 5N 16.1 Mp 
Crop factor 1.5
Lens: PARAGON f/8 500mm Ø72 T2 - @ f/16 
Mode : A  ISO 100 EV 0,0 center focus
Video Stabilization OFF Video 1920x1080 50ps crop 1.5 at 35mm

Don’t forget to click the bell to turn on post notifications!

Nikolaos Instagram: https://www.instagram.com/sakellarisnikolaos/
Twitter: https://twitter.com/SakellarisNiko
Facebook: https://www.facebook.com/nikolaos.sakellaris/
Blog: https://video-photo-blog.blogspot.com/

Music
TITLE Reflections  
ARTIST MK2
https://www.youtube.com/watch?v=Krw642HTCgw&list=PLzCxunOM5WFK2ghyefGBAt06p_CTBIE3L
Thank you

Complete name : AVCHD\BDMV\STREAM\00027.MTS 
Format : BDAV 
Format/Info : Blu-ray Video 
File size : 291 MiB 
Duration : 1 min 32 s 
Overall bit rate mode : Variable 
Overall bit rate : 26.4 Mb/s 
Maximum Overall bit rate : 28.0 Mb/s 
Recorded date : 2020-04-08 02:11:20+02:00 
Writing application : Sony NEX-5N 

Video 
ID : 4113 (0x1011) 
Menu ID : 1 (0x1) 
Format : AVC 
Format/Info : Advanced Video Codec 
Format profile : High@L4.2 
Format settings : CABAC / 2 Ref Frames 
Format settings, CABAC : Yes 
Format settings, RefFrames : 2 frames 
Format settings, GOP : M=1, N=12 
Codec ID : 27 
Duration : 1 min 32 s 
Bit rate mode : Variable 
Bit rate : 25.1 Mb/s 
Maximum bit rate : 26.0 Mb/s 
Width : 1 920 pixels 
Height : 1 080 pixels 
Display aspect ratio : 16:9 
Frame rate : 50.000 FPS 
Color space : YUV 
Chroma subsampling : 4:2:0 
Bit depth : 8 bits 
Scan type : Progressive 
Bits/(Pixel*Frame) : 0.242 
Stream size : 276 MiB (95%) 
IrisFNumber : 0.000000 

Audio 
ID : 4352 (0x1100) 
Menu ID : 1 (0x1) 
Format : AC-3 
Format/Info : Audio Coding 3 
Commercial name : Dolby Digital 
Codec ID : 129 
Duration : 1 min 32 s 
Bit rate mode : Constant 
Bit rate : 256 kb/s 
Channel(s) : 2 channels 
Channel layout : L R 
Sampling rate : 48.0 kHz 
Frame rate : 31.250 FPS (1536 SPF) 
Bit depth : 16 bits 
Compression mode : Lossy 
Stream size : 2.81 MiB (1%) 
Service kind : Complete Main 

Text 
ID : 4608 (0x1200) 
Menu ID : 1 (0x1) 
Format : PGS 
Codec ID : 144 
Duration : 1 min 31 s






Super pink moon april 2020,
Tuesday April 7 2020 THE SUPER PINK MOON,
SUPER PINK MOON,April 7 THE SUPER PINK MOON,
2020 THE SUPER PINK MOON,
April 7 2020 THE SUPER PINK MOON,
super pink moon 4K,Sony NEX-5N with PARAGON f/8 500mm,
T2 adapted to NEX,
Sony NEX 5N adapted to T2,
Sony NEX 5N PARAGON f/8 500mm,
Full moon Sony NEX 5N,Sony NEX 5N in mode M iso 100 1/500,
Full moon sony nex 5N,Full moon,PARAGON f/8 500mm


JVC Everio GZ-GX1 FHD video test #005 1080 50p 28.0 Mb/s F/1.2


JVC Everio GZ-GX1 FHD video test #005 1080 50p 28.0 Mb/s F/1.2



JVC Everio GZ-GX1BEK
video test #005 
50fps FHD 28.0 Mb/s 
GZ-GX1 F/1.2 

Don’t forget to click the bell to turn on post notifications!

Nikolaos Instagram: https://www.instagram.com/sakellarisnikolaos/
Twitter: https://twitter.com/SakellarisNiko
Facebook: https://www.facebook.com/nikolaos.sakellaris/
Blog: https://video-photo-blog.blogspot.com/
 
Complete name : JVC\GZ-GX1\VIDEO\00004.MTS 
CompleteName_Last : JVC\GZ-GX1\VIDEO\00031.MTS 
Format : BDAV 
Format/Info : Blu-ray Video 
File size : 284 MiB 
Duration : 1 m 24 s 
Overall bit rate mode : Variable 
Maximum Overall bit rate : 28.0 Mb/s 
Recorded date : 2019-05-17 16:25:23+02:00 
Writing application : JVC  

Video 
ID : 4113 (0x1011) 
Menu ID : 1 (0x1) 
Format : AVC 
Format/Info : Advanced Video Codec 
Format profile : High@L4.2 
Format settings : CABAC / 2 Ref Frames 
Format settings, CABAC : Yes 
Format settings, RefFrames : 2 frames 
Format settings, GOP : M=3, N=12 
Codec ID : 27 
Duration : 10 s 760 ms 
Bit rate mode : Variable 
Bit rate : 2 083 Mb/s 
Maximum bit rate : 26.8 Mb/s 
Width : 1 920 pixels 
Height : 1 080 pixels 
Display aspect ratio : 16:9 
Frame rate : 50.000 FPS 
Color space : YUV 
Chroma subsampling : 4:2:0 
Bit depth : 8 bits 
Scan type : Progressive 
Bits/(Pixel*Frame) : 20.092 
Stream size : 2.61 GiB (96%) 

Audio 
ID : 4352 (0x1100) 
Menu ID : 1 (0x1) 
Format : AC-3 
Format/Info : Audio Coding 3 
Commercial name : Dolby Digital 
Codec ID : 129 
Duration : 10 s 816 ms 
Bit rate mode : Constant 
Bit rate : 256 kb/s 
Channel(s) : 2 channels 
Channel layout : L R 
Sampling rate : 48.0 kHz 
Frame rate : 31.250 FPS (1536 SPF) 
Bit depth : 16 bits 
Compression mode : Lossy 
Delay relative to video : -40 ms 
Stream size : 338 KiB (0%) 
Service kind : Complete Main 

Text 
ID : 4608 (0x1200) 
Menu ID : 1 (0x1) 
Format : PGS 
Codec ID : 144 
Duration : 10 s 535 ms 
Delay relative to video : -40 ms






JVC Everio GZ-GX1,Everio GZ-GX1,
GZ-GX1 video test,
Everio GZ-GX1 video test,JVC Everio GZ-GX1BEK,
GZ-GX1BEK,video test,50fps FHD 28.0 Mb/s,50fps FHD,
GZ-GX1 F/1.2,JVC Everio GZ-GX1 FHD video test 50p,
JVC Everio GZ-GX1 FHD video test


Ants in line fast video test #4 Fujifilm FinePix F500EXR focus @24mm 1080 30p 14Mb/s


Ants in line fast video test #4 Fujifilm FinePix F500EXR focus @24mm 1080 30p 14Mb/s



Ants in line fast i Larissa
Fujifilm FinePix F500EXR 16.0 MP video test #4
 Fujinon 1x optical zoom F3.5 - 24mm, 15x equivalent to 24 - 360mm on a 35mm F/5.3  with ND filter
Movie recording 
1920 x 1080 pixels /  (30 frames / sec.) with stereo sound.
Optical zoom function can be used.

Don’t forget to click the bell to turn on post notifications!

Nikolaos Instagram: https://www.instagram.com/sakellarisnikolaos/
Twitter: https://twitter.com/SakellarisNiko
Facebook: https://www.facebook.com/nikolaos.sakellaris/
Blog: https://video-photo-blog.blogspot.com/

Complete name : FUJIFILM\FinePix F500EXR\Video\DSCF7119.MOV 
Format : MPEG-4 
Format profile : QuickTime 
Codec ID : qt 0000.00 (qt ) 
File size : 27.2 MiB 
Duration : 16 s 16 ms 
Overall bit rate : 14.2 Mb/s 
Movie_More : FUJIFILM DIGITAL CAMERA FinePix F500EXR 

Origin : Digital Camera 
MVTG :  

Video 
ID : 1 
Format : AVC 
Format/Info : Advanced Video Codec 
Format profile : High@L4 
Format settings : 1 Ref Frames 
Format settings, CABAC : No 
Format settings, RefFrames : 1 frame 
Format settings, GOP : M=1, N=15 
Codec ID : avc1 
Codec ID/Info : Advanced Video Coding 
Duration : 16 s 16 ms 
Bit rate : 12.2 Mb/s 
Width : 1 920 pixels 
Height : 1 080 pixels 
Display aspect ratio : 16:9 
Frame rate mode : Constant 
Frame rate : 29.970 (30000/1001) FPS 
Color space : YUV 
Chroma subsampling : 4:2:0 
Bit depth : 8 bits 
Scan type : Progressive 
Bits/(Pixel*Frame) : 0.196 
Stream size : 23.3 MiB (86%) 
Language : English 
Codec configuration box : avcC 

Audio 
ID : 2 
Format : PCM 
Format settings : Little / Signed 
Codec ID : sowt 
Duration : 16 s 16 ms 
Bit rate mode : Constant 
Bit rate : 1 536 kb/s 
Channel(s) : 2 channels 
Channel layout : L R 
Sampling rate : 48.0 kHz 
Bit depth : 16 bits 
Stream size : 1.47 MiB (5%) 
Language : English






Fujifilm FinePix F500EXRvideo test,
Fujifilm FinePix F500EXRzoom test,
Fujifilm FinePix F500EXR,Fujinon 15x optical zoom,
24mm video test #1,Clouds Testing Fujifilm FinePix F500EXR f,
Testing Fujifilm FinePix F500EXR,
F500EXR focus @ 24mm,Fujifilm FinePix F500 EXR,
Ants in line,fast ivdeo test #4


Saint Nicholas Church fast video test #3 Fujifilm FinePix F500EXR focus @24mm 1080 30p 14Mb/s


Saint Nicholas Church fast video test #3 Fujifilm FinePix F500EXR focus @24mm 1080 30p 14Mb/s



Saint Nicholas Church Larissa
Fujifilm FinePix F500EXR 16.0 MP video test #3
 Fujinon 1x optical zoom F3.5 - 24mm, 15x equivalent to 24 - 360mm on a 35mm F/5.3  with ND filter
Movie recording 
1920 x 1080 pixels /  (30 frames / sec.) with stereo sound.
Optical zoom function can be used.

Don’t forget to click the bell to turn on post notifications!

Nikolaos Instagram: https://www.instagram.com/sakellarisnikolaos/
Twitter: https://twitter.com/SakellarisNiko
Facebook: https://www.facebook.com/nikolaos.sakellaris/
Blog: https://video-photo-blog.blogspot.com/

Complete name : D:\PHOTO\FUJIFILM\FinePix F500EXR\Video\DSCF7628.MOV 
Format : MPEG-4 
Format profile : QuickTime 
Codec ID : qt 0000.00 (qt ) 
File size : 23.9 MiB 
Duration : 14 s 14 ms 
Overall bit rate : 14.3 Mb/s 
Movie_More : FUJIFILM DIGITAL CAMERA FinePix F500EXR 
Encoded date : UTC 2020-03-05 15:56:08 
Origin : Digital Camera 

Video 
ID : 1 
Format : AVC 
Format/Info : Advanced Video Codec 
Format profile : High@L4 
Format settings : 1 Ref Frames 
Format settings, CABAC : No 
Format settings, RefFrames : 1 frame 
Format settings, GOP : M=1, N=15 
Codec ID : avc1 
Codec ID/Info : Advanced Video Coding 
Duration : 14 s 14 ms 
Bit rate : 12.2 Mb/s 
Width : 1 920 pixels 
Height : 1 080 pixels 
Display aspect ratio : 16:9 
Frame rate mode : Constant 
Frame rate : 29.970 (30000/1001) FPS 
Color space : YUV 
Chroma subsampling : 4:2:0 
Bit depth : 8 bits 
Scan type : Progressive 
Bits/(Pixel*Frame) : 0.196 
Stream size : 20.4 MiB (85%) 
Language : English 
Encoded date : UTC 2020-03-05 15:56:08 
Tagged date : UTC 2020-03-05 15:56:08 
Codec configuration box : avcC 

Audio 
ID : 2 
Format : PCM 
Format settings : Little / Signed 
Codec ID : sowt 
Duration : 14 s 14 ms 
Bit rate mode : Constant 
Bit rate : 1 536 kb/s 
Channel(s) : 2 channels 
Channel layout : L R 
Sampling rate : 48.0 kHz 
Bit depth : 16 bits 
Stream size : 1.28 MiB (5%) 
Language : English






Fujifilm FinePix F500EXRvideo test,
Fujifilm FinePix F500EXRzoom test,
Fujifilm FinePix F500EXR,Fujinon 15x optical zoom,
24mm video test #1,Testing Fujifilm FinePix F500EXR f,
Testing Fujifilm FinePix F500EXR,F500EXR focus @ 24mm,
Fujifilm FinePix F500 EXR,St. Nicholas Church Larissa,
St. Nicholas Church,
Saint Nicholas Church,Saint Nicholas Church Larissa


St. Nicholas Church fast video test #2 Fujifilm FinePix F500EXR focus @24mm 1080 30p 14Mb/s


St. Nicholas Church fast video test #2 Fujifilm FinePix F500EXR focus @24mm 1080 30p 14Mb/s



St. Nicholas Church Larissa
Fujifilm FinePix F500EXR 16.0 MP video test #2
 Fujinon 1x optical zoom F3.5 - 24mm, 15x equivalent to 24 - 360mm on a 35mm F/5.3  with ND filter
Movie recording 
1920 x 1080 pixels /  (30 frames / sec.) with stereo sound.
Optical zoom function can be used.

Don’t forget to click the bell to turn on post notifications!

Nikolaos Instagram: https://www.instagram.com/sakellarisnikolaos/
Twitter: https://twitter.com/SakellarisNiko
Facebook: https://www.facebook.com/nikolaos.sakellaris/
Blog: https://video-photo-blog.blogspot.com/

Complete name : FUJIFILM\FinePix F500EXR\Video\DSCF7632.MOV 
Format : MPEG-4 
Format profile : QuickTime 
Codec ID : qt 0000.00 (qt ) 
File size : 20.6 MiB 
Duration : 12 s 12 ms 
Overall bit rate : 14.4 Mb/s 
Movie_More : FUJIFILM DIGITAL CAMERA FinePix F500EXR 
Encoded date : UTC 2020-03-05 15:59:20 
Origin : Digital Camera 

Video 
ID : 1 
Format : AVC 
Format/Info : Advanced Video Codec 
Format profile : High@L4 
Format settings : 1 Ref Frames 
Format settings, CABAC : No 
Format settings, RefFrames : 1 frame 
Format settings, GOP : M=1, N=15 
Codec ID : avc1 
Codec ID/Info : Advanced Video Coding 
Duration : 12 s 12 ms 
Bit rate : 12.2 Mb/s 
Width : 1 920 pixels 
Height : 1 080 pixels 
Display aspect ratio : 16:9 
Frame rate mode : Constant 
Frame rate : 29.970 (30000/1001) FPS 
Color space : YUV 
Chroma subsampling : 4:2:0 
Bit depth : 8 bits 
Scan type : Progressive 
Bits/(Pixel*Frame) : 0.196 
Stream size : 17.5 MiB (85%) 
Language : English 
Codec configuration box : avcC 

Audio 
ID : 2 
Format : PCM 
Format settings : Little / Signed 
Codec ID : sowt 
Duration : 12 s 12 ms 
Bit rate mode : Constant 
Bit rate : 1 536 kb/s 
Channel(s) : 2 channels 
Channel layout : L R 
Sampling rate : 48.0 kHz 
Bit depth : 16 bits 
Stream size : 1.10 MiB (5%) 
Language : English






Fujifilm FinePix F500EXRvideo test,Fujifilm FinePix F500EXRzoom test,
Fujifilm FinePix F500EXR,Fujinon 15x optical zoom,
24mm video test #1,Clouds Testing Fujifilm FinePix F500EXR f,
Testing Fujifilm FinePix F500EXR,F500EXR focus @ 24mm,
Fujifilm FinePix F500 EXR,St. Nicholas Church Larissa,
St. Nicholas Church


Clouds Testing Fujifilm FinePix F500EXR focus @ 24mm video test #1 1080 30p 14Mb/s


Clouds Testing Fujifilm FinePix F500EXR focus @ 24mm video test #1 1080 30p 14Mb/s



Clouds !!!
 Fujifilm FinePix F500EXR 16.0 MP video test #1
 Fujinon 1x optical zoom F3.5 - 24mm, 15x equivalent to 24 - 360mm on a 35mm F/5.3  with ND filter
Movie recording 
1920 x 1080 pixels /  (30 frames / sec.) with stereo sound.
Optical zoom function can be used.

Don’t forget to click the bell to turn on post notifications!

Nikolaos Instagram: https://www.instagram.com/sakellarisnikolaos/
Twitter: https://twitter.com/SakellarisNiko
Facebook: https://www.facebook.com/nikolaos.sakellaris/
Blog: https://video-photo-blog.blogspot.com/

Complete name : FUJIFILM\FinePix F500EXR\Video\DSCF7458.MOV 
Format : MPEG-4 
Format profile : QuickTime 
Codec ID : qt 0000.00 (qt ) 
File size : 104 MiB 
Duration : 1 min 3 s 
Overall bit rate : 13.9 Mb/s 
Movie_More : FUJIFILM DIGITAL CAMERA FinePix F500EXR 
Encoded date : UTC 2019-05-23 08:12:27 
Origin : Digital Camera 
MVTG :  

Video 
ID : 1 
Format : AVC 
Format/Info : Advanced Video Codec 
Format profile : High@L4 
Format settings : 1 Ref Frames 
Format settings, CABAC : No 
Format settings, RefFrames : 1 frame 
Format settings, GOP : M=1, N=15 
Codec ID : avc1 
Codec ID/Info : Advanced Video Coding 
Duration : 1 min 3 s 
Bit rate : 12.2 Mb/s 
Width : 1 920 pixels 
Height : 1 080 pixels 
Display aspect ratio : 16:9 
Frame rate mode : Constant 
Frame rate : 29.970 (30000/1001) FPS 
Color space : YUV 
Chroma subsampling : 4:2:0 
Bit depth : 8 bits 
Scan type : Progressive 
Bits/(Pixel*Frame) : 0.196 
Stream size : 91.7 MiB (88%) 
Language : English 
Codec configuration box : avcC 

Audio 
ID : 2 
Format : PCM 
Format settings : Little / Signed 
Codec ID : sowt 
Duration : 1 min 3 s 
Bit rate mode : Constant 
Bit rate : 1 536 kb/s 
Channel(s) : 2 channels 
Channel layout : L R 
Sampling rate : 48.0 kHz 
Bit depth : 16 bits 
Stream size : 5.77 MiB (6%) 
Language : English






2020 Spring is here,Fujifilm FinePix F500EXRvideo test,
Fujifilm FinePix F500EXRzoom test,Fujifilm FinePix F500EXR,
Fujinon 15x optical zoom,24mm video test #1,
Clouds Testing Fujifilm FinePix F500EXR f,
Testing Fujifilm FinePix F500EXR,
F500EXR focus @ 24mm,Fujifilm FinePix F500 EXR


The T2 Tunnel at Valley of Tempi 6 km Gopro Hero CHDHA-301 1920 x 1080 25ffps


The T2 Tunnel at Valley of Tempi 6 km Gopro Hero CHDHA-301 1920 x 1080 25ffps



The T2 Tunnel at Valley of Tempi 6 Km 
 July ,6 2019 Gopro Hero CHDHA-301 1080 25fps

Don’t forget to click the bell to turn on post notifications!

Nikolaos Instagram: https://www.instagram.com/sakellarisnikolaos/
Twitter: https://twitter.com/SakellarisNiko
Facebook: https://www.facebook.com/nikolaos.sakellaris/
Blog: https://video-photo-blog.blogspot.com/

Complete name : GOPRO\CHDHA-301\Video\GOPR0559.MP4 
Format : MPEG-4 
Format profile : JVT 
Codec ID : avc1 (avc1/isom) 
File size : 485 MiB 
Duration : 4 min 28 s 
Overall bit rate : 15.2 Mb/s 
Encoded date : UTC 2019-07-06 16:05:10 
AMBA :  

Video 
ID : 1 
Format : AVC 
Format/Info : Advanced Video Codec 
Format profile : Main@L4 
Format settings : CABAC / 2 Ref Frames 
Format settings, CABAC : Yes 
Format settings, RefFrames : 2 frames 
Format settings, GOP : M=3, N=15 
Codec ID : avc1 
Codec ID/Info : Advanced Video Coding 
Duration : 4 min 28 s 
Bit rate mode : Constant 
Bit rate : 14.6 Mb/s 
Width : 1 920 pixels 
Height : 1 080 pixels 
Display aspect ratio : 16:9 
Frame rate mode : Constant 
Frame rate : 25.000 FPS 
Color space : YUV 
Chroma subsampling : 4:2:0 
Bit depth : 8 bits 
Scan type : Progressive 
Bits/(Pixel*Frame) : 0.282 
Stream size : 480 MiB (99%) 
Title : Ambarella AVC 
Language : English 
Color range : Full 
Codec configuration box : avcC 

Audio 
ID : 2 
Format : AAC LC 
Format/Info : Advanced Audio Codec Low Complexity 
Codec ID : mp4a-40-2 
Duration : 4 min 28 s 
Bit rate mode : Constant 
Bit rate : 128 kb/s 
Channel(s) : 2 channels 
Channel layout : L R 
Sampling rate : 48.0 kHz 
Frame rate : 46.875 FPS (1024 SPF) 
Compression mode : Lossy 
Stream size : 4.09 MiB (1%) 
Title : Ambarella AAC 
Language : English 

Other 
ID : 3 
Type : Time code 
Format : QuickTime TC 
Duration : 4 min 28 s 
Time code of first frame : 16:05:10:00 
Time code, striped : Yes 
Language : English






Gopro Hero CHDHA-301,Nei Pori,Sunset,The T2 Tunnel,at Valley of Tempi,
6Km,The T2 Tunnel Tempi 6Km,The T2 Tunnel at Valley of Tempi 6Km,
The T2 Tunnel at Valley of Tempi 6 km


Gopro hero 4 silver edition 1920 x 1080 50fps 16:9 format video test #3 45 Mb/s HWBD1 CHDHY-401


Gopro hero 4 silver edition 1920 x 1080 50fps 16:9 format video test #3 45 Mb/s HWBD1 CHDHY-401



Gopro hero 4 silver edition HWBD1 CHDHY-401
 50fps 1920 x 1080 16:9  format video test #3 45 Mb/s
οδός Ηπείρου 32- Τζαβέλα Λάρισα

Don’t forget to click the bell to turn on post notifications!

Nikolaos Instagram: https://www.instagram.com/sakellarisnikolaos/
Twitter: https://twitter.com/SakellarisNiko
Facebook: https://www.facebook.com/nikolaos.sakellaris/
Blog: https://video-photo-blog.blogspot.com/

Complete name : GOPRO\HERO4 Silver\Video\GOPR0550.MP4 
Format : MPEG-4 
Format profile : Base Media / Version 1 
Codec ID : mp41 (mp41) 
File size : 446 MiB 
Duration : 1 min 22 s 
Overall bit rate mode : Variable 
Overall bit rate : 45.2 Mb/s 
AMBA : x 

Video 
ID : 1 
Format : AVC 
Format/Info : Advanced Video Codec 
Format profile : High@L4.2 
Format settings : CABAC / 1 Ref Frames 
Format settings, CABAC : Yes 
Format settings, RefFrames : 1 frame 
Format settings, GOP : M=1, N=25 
Codec ID : avc1 
Codec ID/Info : Advanced Video Coding 
Duration : 1 min 22 s 
Bit rate mode : Variable 
Bit rate : 45.0 Mb/s 
Width : 1 920 pixels 
Height : 1 080 pixels 
Display aspect ratio : 16:9 
Frame rate mode : Constant 
Frame rate : 50.000 FPS 
Color space : YUV 
Chroma subsampling : 4:2:0 
Bit depth : 8 bits 
Scan type : Progressive 
Bits/(Pixel*Frame) : 0.434 
Stream size : 444 MiB (100%) 
Title : GoPro AVC 
Language : English 
Color range : Full 
Color primaries : BT.709 
Transfer characteristics : BT.709 
Matrix coefficients : BT.709 
Codec configuration box : avcC 

Audio 
ID : 2 
Format : AAC LC 
Format/Info : Advanced Audio Codec Low Complexity 
Codec ID : mp4a-40-2 
Duration : 1 min 22 s 
Bit rate mode : Constant 
Bit rate : 128 kb/s 
Channel(s) : 2 channels 
Channel layout : L R 
Sampling rate : 48.0 kHz 
Frame rate : 46.875 FPS (1024 SPF) 
Compression mode : Lossy 
Stream size : 1.26 MiB (0%) 
Title : GoPro AAC 
Language : English 

Other #1 
ID : 3 
Type : Time code 
Format : QuickTime TC 
Duration : 1 min 22 s 
Time code of first frame : 00:08:48:18 
Time code, striped : Yes 
Title : GoPro TCD 
Language : English 
Bit rate mode : CBR 

Other #2 
Type : meta 
mdhd_Duration : 82740 
Bit rate mode : VBR






Gopro hero 4 silver edition,CHDHY-401,50fps 1920 x 1080 16:9,
16:9 format,video test #3,45 Mb/s,Gopro hero 4 silver edition CHDHY-401,
50fps 1920 x 1080 16:9 format video test,
οδός Ηπείρου Λάρισα,οδός Ηπείρου 59-55 Λάρισα,οδός Τζαβέλα Λάρισα,
οδός Ηπείρου 32- Τζαβέλα Λάρισα,HWBD1 CHDHY-401


Visiting Acropolis part 10 North West view of Athens from Filopappou Hill , my first time


Visiting Acropolis part 10 North West view of Athens from Filopappou Hill , my first time



Visiting Acropolis part 10 North view of Athens Filopappou Hill ,  my first time  at Filopappou 
2017 after a trip to Naxos island

Don’t forget to click the bell to turn on post notifications!

Nikolaos Instagram: https://www.instagram.com/sakellarisnikolaos/
Twitter: https://twitter.com/SakellarisNiko
Facebook: https://www.facebook.com/nikolaos.sakellaris/
Blog: https://video-photo-blog.blogspot.com/

Philopappou or Filopappou (Greek: Φιλοπάππου pronounced [fi.loˈpa.pu])
 is a small neighborhood of Athens, Greece south of the Philopappos Monument,
 from which it takes its name.

Transport
Petralona station on Line 1 on Syngrou Fix station on Line 3 are
 the nearest stations of the Athens Metro.
 The area is also served by a trolley bus stop (line 15) of the same name as the area





Filopappou,North West view of Athens,Filopappou Hill,Acropolis,Visiting Acropolis,Parthenon,Acropolis part 10



Popular Posts