Showing posts with label AUTO TELEPLUS 2X. Show all posts
Showing posts with label AUTO TELEPLUS 2X. Show all posts

Moon : Nikon D3200 + Nikon AF NIKKOR 70-300mm f/4-5.6 G f62 + NI AUTO TELEPLUS 2X FHD 1080 25p



Moon 12/OCT/2019
Camera : Nikon D3200 in manual , shutter 1/200, iso 200
Lens: Nikon AF NIKKOR 70-300mm f/4-5.6 G f62 - @ f/5.6
Teleconverter : NI AUTO TELEPLUS 2X manual
Video  test 1920 1080 25p

Complete name : DCIM\122D3200\DSC_8122.MOV
Format : MPEG-4
Format profile : QuickTime
Codec ID : qt 2007.09 (qt /niko)
File size : 439 MiB
Duration : 2 min 54 s
Overall bit rate : 21.1 Mb/s
Encoded date : UTC 2019-10-12 00:39:24
NCDT : NCTG

Video
ID : 1
Format : AVC
Format/Info : Advanced Video Codec
Format profile : High@L4
Format settings : CABAC / 2 Ref Frames
Format settings, CABAC : Yes
Format settings, Reference frames : 2 frames
Format settings, GOP : M=3, N=12
Codec ID : avc1
Codec ID/Info : Advanced Video Coding
Duration : 2 min 54 s
Bit rate : 19.5 Mb/s
Width : 1 920 pixels
Height : 1 080 pixels
Display aspect ratio : 16:9
Frame rate mode : Constant
Frame rate : 25.000 FPS
Color space : YUV
Chroma subsampling : 4:2:0
Bit depth : 8 bits
Scan type : Progressive
Bits/(Pixel*Frame) : 0.377
Stream size : 407 MiB (93%)
Language : English
Encoded date : UTC 2019-10-12 00:39:24
Color range : Full
Color primaries : BT.709
transfer_characteristics_Original : BT.470 System M
Matrix coefficients : BT.601
Codec configuration box : avcC

Audio
ID : 2
Format : PCM
Format settings : Little / Signed
Codec ID : sowt
Duration : 2 min 54 s
Bit rate mode : Constant
Bit rate : 1 536 kb/s
Channel(s) : 2 channels
Channel layout : L R
Sampling rate : 48.0 kHz
Bit depth : 16 bits
Stream size : 32.0 MiB (7%)
Language : English
Encoded date : UTC 2019-10-12 00:39:24

Genova città deserta Seconda parte rimaniamo a casa Μένουμε Σπίτι και εμείς

rimaniamo a casa Seconda parte Genova città deserta #StayHome Γένοβα δεύτερο μέρος Μένουμε Σπίτι και εμείς 2nd Part desert Genoa Geno...