Showing posts with label SIGMA MIRROR-TELEPHOTO f/8 600mm M42. Show all posts
Showing posts with label SIGMA MIRROR-TELEPHOTO f/8 600mm M42. Show all posts

Full Moon 21 March 2019 : Samsung NX20



Full Moon 21 March 2019 1920 810P 24P
Camera Samsung NX20   SteadyShot  NO - MF Manual Shoting ISO 100 f/8
Lens SIGMA MIRROR-TELEPHOTO f/8 600mm M42 adapted to NX

Complete name : DCIM\100PHOTO\SAM_0072.MP4
Format : MPEG-4
Format profile : Base Media / Version 2
Codec ID : mp42 (mp42/isom/avc1)
File size : 18.5 MiB
Duration : 31 s 616 ms
Overall bit rate : 4 904 kb/s

Video
ID : 1
Format : AVC
Format/Info : Advanced Video Codec
Format profile : High@L4.1
Format settings : 2 Ref Frames
Format settings, CABAC : No
Format settings, RefFrames : 2 frames
Format settings, GOP : M=1, N=24
Codec ID : avc1
Codec ID/Info : Advanced Video Coding
Duration : 31 s 415 ms
Bit rate : 4 796 kb/s
Width : 1 920 pixels
Height : 810 pixels
Display aspect ratio : 2.40:1
Frame rate mode : Constant
Frame rate : 24.000 FPS
Color space : YUV
Chroma subsampling : 4:2:0
Bit depth : 8 bits
Scan type : Progressive
Bits/(Pixel*Frame) : 0.129
Stream size : 18.0 MiB (97%)
Language : English
Codec configuration box : avcC

Audio
ID : 2
Format : AAC LC
Format/Info : Advanced Audio Codec Low Complexity
Codec ID : mp4a-40-2
Duration : 31 s 616 ms
Bit rate mode : Constant
Bit rate : 128 kb/s
Channel(s) : 2 channels
Channel layout : L R
Sampling rate : 32.0 kHz
Frame rate : 31.250 FPS (1024 SPF)
Compression mode : Lossy
Stream size : 490 KiB (3%)
Language : English

Genova città deserta Seconda parte rimaniamo a casa Μένουμε Σπίτι και εμείς

rimaniamo a casa Seconda parte Genova città deserta #StayHome Γένοβα δεύτερο μέρος Μένουμε Σπίτι και εμείς 2nd Part desert Genoa Geno...