Showing posts with label Nikon AI to Canon EOS. Show all posts
Showing posts with label Nikon AI to Canon EOS. Show all posts

Sunset Clouds Canon 250D video test with ARSAT H 50mm 1:2 Nikon AI adapted to EOS 4K @ 25fps sl3




Sunset Clouds Camera : Canon EOS 250d 4K 25p crop 2.6 @ 4K Lens : ARSAT H 50mm f/2 Ø52 Nikon AI @ f/2 130mm equivalent 35mm Mode A Iso 800 50mm 4k cropped 2.6x video stabilisation OFF canon sl3 adapted Complete name : Desktop\104PHOTO\MVI_7771.MP4 Format : MPEG-4 Format profile : Base Media / Version 2 Codec ID : mp42 (mp42/avc1/CAEP) File size : 924 MiB Duration : 1 min 5 s Overall bit rate : 119 Mb/s Video ID : 1 Format : AVC Format/Info : Advanced Video Codec Format profile : High@L5.1 Format settings : 2 Ref Frames Format settings, CABAC : No Format settings, RefFrames : 2 frames Format settings, GOP : M=3, N=12 Codec ID : avc1 Codec ID/Info : Advanced Video Coding Duration : 1 min 5 s Bit rate : 119 Mb/s Width : 3 840 pixels Height : 2 160 pixels Display aspect ratio : 16:9 Frame rate mode : Constant Frame rate : 25.000 FPS Color space : YUV Chroma subsampling : 4:2:0 Bit depth : 8 bits Scan type : Progressive Bits/(Pixel*Frame) : 0.573 Stream size : 922 MiB (100%) Language : English Color range : Full Color primaries : BT.709 Transfer characteristics : BT.709 Matrix coefficients : BT.709 Codec configuration box : avcC Audio ID : 2 Format : AAC LC Format/Info : Advanced Audio Codec Low Complexity Codec ID : mp4a-40-2 Duration : 1 min 5 s Bit rate mode : Constant Bit rate : 256 kb/s Channel(s) : 2 channels Channel layout : L R Sampling rate : 48.0 kHz Frame rate : 46.875 FPS (1024 SPF) Compression mode : Lossy Stream size : 1.97 MiB (0%) Language : English

Genova città deserta Seconda parte rimaniamo a casa Μένουμε Σπίτι και εμείς

rimaniamo a casa Seconda parte Genova città deserta #StayHome Γένοβα δεύτερο μέρος Μένουμε Σπίτι και εμείς 2nd Part desert Genoa Geno...