Showing posts with label Nikon D3200. Show all posts
Showing posts with label Nikon D3200. Show all posts

Moon : Nikon D3200 + Nikon AF NIKKOR 70-300mm f/4-5.6 G f62 + NI AUTO TELEPLUS 2X FHD 1080 25p



Moon 12/OCT/2019
Camera : Nikon D3200 in manual , shutter 1/200, iso 200
Lens: Nikon AF NIKKOR 70-300mm f/4-5.6 G f62 - @ f/5.6
Teleconverter : NI AUTO TELEPLUS 2X manual
Video  test 1920 1080 25p

Complete name : DCIM\122D3200\DSC_8122.MOV
Format : MPEG-4
Format profile : QuickTime
Codec ID : qt 2007.09 (qt /niko)
File size : 439 MiB
Duration : 2 min 54 s
Overall bit rate : 21.1 Mb/s
Encoded date : UTC 2019-10-12 00:39:24
NCDT : NCTG

Video
ID : 1
Format : AVC
Format/Info : Advanced Video Codec
Format profile : High@L4
Format settings : CABAC / 2 Ref Frames
Format settings, CABAC : Yes
Format settings, Reference frames : 2 frames
Format settings, GOP : M=3, N=12
Codec ID : avc1
Codec ID/Info : Advanced Video Coding
Duration : 2 min 54 s
Bit rate : 19.5 Mb/s
Width : 1 920 pixels
Height : 1 080 pixels
Display aspect ratio : 16:9
Frame rate mode : Constant
Frame rate : 25.000 FPS
Color space : YUV
Chroma subsampling : 4:2:0
Bit depth : 8 bits
Scan type : Progressive
Bits/(Pixel*Frame) : 0.377
Stream size : 407 MiB (93%)
Language : English
Encoded date : UTC 2019-10-12 00:39:24
Color range : Full
Color primaries : BT.709
transfer_characteristics_Original : BT.470 System M
Matrix coefficients : BT.601
Codec configuration box : avcC

Audio
ID : 2
Format : PCM
Format settings : Little / Signed
Codec ID : sowt
Duration : 2 min 54 s
Bit rate mode : Constant
Bit rate : 1 536 kb/s
Channel(s) : 2 channels
Channel layout : L R
Sampling rate : 48.0 kHz
Bit depth : 16 bits
Stream size : 32.0 MiB (7%)
Language : English
Encoded date : UTC 2019-10-12 00:39:24

Moon : Nikon D3200 + Nikon AF NIKKOR 70-300mm f/4-5.6 G f62 FHD 1080 25p



Moon 12/OCT/2019
Camera : Nikon D3200 in manual , shutter 1/320, iso 200
Lens: Nikon AF NIKKOR 70-300mm f/4-5.6 G f62 - @ f/5.6
Video  test 1920 1080 25p

Moon : Nikon D3200 + PARAGON f/8 500mm f72 + SIGMA TELEMAC VARIO 2X-3X FHD 1080 25p



Moon 12/OCT/2019
Camera : Nikon D3200 in manual , shutter 1/300, iso 200
Lens: PARAGON f/8 500mm f72 T2 - @ f/11 T2
Teleconverter : SIGMA TELEMAC VARIO 2X 2.5X 3X  m42
Video  test 1920 1080 25p
1:8 f= 500mm


Complete name :DCIM\122D3200\DSC_8119.MOV
Format : MPEG-4
Format profile : QuickTime
Codec ID : qt 2007.09 (qt /niko)
File size : 532 MiB
Duration : 3 min 27 s
Overall bit rate : 21.5 Mb/s
Encoded date : UTC 2019-10-12 00:21:29
NCDT : NCTG

Video
ID : 1
Format : AVC
Format/Info : Advanced Video Codec
Format profile : High@L4
Format settings : CABAC / 2 Ref Frames
Format settings, CABAC : Yes
Format settings, Reference frames : 2 frames
Format settings, GOP : M=3, N=12
Codec ID : avc1
Codec ID/Info : Advanced Video Coding
Duration : 3 min 27 s
Bit rate : 20.0 Mb/s
Width : 1 920 pixels
Height : 1 080 pixels
Display aspect ratio : 16:9
Frame rate mode : Constant
Frame rate : 25.000 FPS
Color space : YUV
Chroma subsampling : 4:2:0
Bit depth : 8 bits
Scan type : Progressive
Bits/(Pixel*Frame) : 0.385
Stream size : 494 MiB (93%)
Language : English
Encoded date : UTC 2019-10-12 00:21:29
Color range : Full
Color primaries : BT.709
transfer_characteristics_Original : BT.470 System M
Matrix coefficients : BT.601
Codec configuration box : avcC

Audio
ID : 2
Format : PCM
Format settings : Little / Signed
Codec ID : sowt
Duration : 3 min 27 s
Bit rate mode : Constant
Bit rate : 1 536 kb/s
Channel(s) : 2 channels
Channel layout : L R
Sampling rate : 48.0 kHz
Bit depth : 16 bits
Stream size : 38.0 MiB (7%)
Language : English
Encoded date : UTC 2019-10-12 00:21:29

Moon : Nikon D3200 + PARAGON f/8 500mm f72 FHD 1080 25p




Moon 12/OCT/2019
Camera : Nikon D3200 in manual , shutter 1/500, iso 200
Lens: PARAGON f/8 500mm f72 T2 - @ f/11 T2
Video  test 1920 1080 25p 19.3 Mb/s
1:8 f= 500mm


Complete name : DCIM\122D3200\DSC_8120.MOV
Format : MPEG-4
Format profile : QuickTime
Codec ID : qt 2007.09 (qt /niko)
File size : 759 MiB
Duration : 5 min 5 s
Overall bit rate : 20.9 Mb/s
Encoded date : UTC 2019-10-12 00:28:36
NCDT : NCTG

Video
ID : 1
Format : AVC
Format/Info : Advanced Video Codec
Format profile : High@L4
Format settings : CABAC / 2 Ref Frames
Format settings, CABAC : Yes
Format settings, Reference frames : 2 frames
Format settings, GOP : M=3, N=12
Codec ID : avc1
Codec ID/Info : Advanced Video Coding
Duration : 5 min 5 s
Bit rate : 19.3 Mb/s
Width : 1 920 pixels
Height : 1 080 pixels
Display aspect ratio : 16:9
Frame rate mode : Constant
Frame rate : 25.000 FPS
Color space : YUV
Chroma subsampling : 4:2:0
Bit depth : 8 bits
Scan type : Progressive
Bits/(Pixel*Frame) : 0.373
Stream size : 703 MiB (93%)
Language : English
Encoded date : UTC 2019-10-12 00:28:36
Color range : Full
Color primaries : BT.709
transfer_characteristics_Original : BT.470 System M
Matrix coefficients : BT.601
Codec configuration box : avcC

Audio
ID : 2
Format : PCM
Format settings : Little / Signed
Codec ID : sowt
Duration : 5 min 5 s
Bit rate mode : Constant
Bit rate : 1 536 kb/s
Channel(s) : 2 channels
Channel layout : L R
Sampling rate : 48.0 kHz
Bit depth : 16 bits
Stream size : 55.9 MiB (7%)
Language : English
Encoded date : UTC 2019-1

Nikon D3200 test 4k Upscaled Video UHD 362 Mb/s




4k test
Nikon D3200 4k test upscaled video UHD
https://www.youtube.com/watch?v=8g_wM0gDD4U in FHD
Video Test 2160 25p 362 Mb/s
Mode M iso 200
Lens : Tamron ZOOM MACRO 1:4.5 85-210mm 55MM BBAR MULTI C.
filmed in MACRO

Complete name : 4κ.mp4
Format : MPEG-4
Format profile : Base Media
Codec ID : isom (isom/iso2/mp41)
File size : 1.35 GiB
Duration : 31 s 936 ms
Overall bit rate : 362 Mb/s
Writing application : Lavf57.83.100

Video
ID : 1
Format : HEVC
Format/Info : High Efficiency Video Coding
Format profile : Main@L5@Main
Codec ID : hev1
Codec ID/Info : High Efficiency Video Coding
Duration : 31 s 920 ms
Bit rate : 361 Mb/s
Width : 3 840 pixels
Height : 2 160 pixels
Display aspect ratio : 16:9
Frame rate mode : Constant
Frame rate : 25.000 FPS
Color space : YUV
Chroma subsampling : 4:2:0
Bit depth : 8 bits
Bits/(Pixel*Frame) : 1.743
Stream size : 1.34 GiB (100%)
Writing library : x265 2.5:[Windows][GCC 7.2.0][64 bit] 8bit
Encoding settings : cpuid=1050111 / frame-threads=4 / numa-pools=4 / wpp / no-pmode / no-pme / no-psnr / no-ssim / log-level=2 / input-csp=1 / input-res=3840x2160 / interlace=0 / total-frames=0 / level-idc=0 / high-tier=1 / uhd-bd=0 / ref=5 / no-allow-non-conformance / no-repeat-headers / annexb / no-aud / no-hrd / info / hash=0 / no-temporal-layers / open-gop / min-keyint=25 / keyint=250 / bframes=8 / b-adapt=2 / b-pyramid / bframe-bias=0 / rc-lookahead=40 / lookahead-slices=0 / scenecut=40 / no-intra-refresh / ctu=64 / min-cu-size=8 / rect / amp / max-tu-size=32 / tu-inter-depth=3 / tu-intra-depth=3 / limit-tu=4 / rdoq-level=2 / dynamic-rd=0.00 / no-ssim-rd / signhide / no-tskip / nr-intra=0 / nr-inter=0 / no-constrained-intra / strong-intra-smoothing / max-merge=4 / limit-refs=1 / limit-modes / me=3 / subme=4 / merange=57 / temporal-mvp / weightp / weightb / no-analyze-src-pics / deblock=0:0 / sao / no-sao-non-deblock / rd=6 / no-early-skip / rskip / no-fast-intra / no-tskip-fast / no-cu-lossless / b-intra / rdpenalty=0 / psy-rd=2.00 / psy-rdoq=1.00 / no-rd-refine / analysis-reuse-mode=0 / no-lossless / cbqpoffs=0 / crqpoffs=0 / rc=crf / crf=0.0 / qcomp=0.60 / qpstep=4 / stats-write=0 / stats-read=0 / ipratio=1.40 / pbratio=1.30 / aq-mode=1 / aq-strength=1.00 / cutree / zone-count=0 / no-strict-cbr / qg-size=32 / no-rc-grain / qpmax=69 / qpmin=0 / no-const-vbv / sar=0 / overscan=0 / videoformat=5 / range=0 / colorprim=2 / transfer=2 / colormatrix=2 / chromaloc=0 / display-window=0 / max-cll=0,0 / min-luma=0 / max-luma=255 / log2-max-poc-lsb=8 / vui-timing-info / vui-hrd-info / slices=1 / opt-qp-pps / opt-ref-list-length-pps / no-multi-pass-opt-rps / scenecut-bias=0.05 / no-opt-cu-delta-qp / no-aq-motion / no-hdr / no-hdr-opt / no-dhdr10-opt / analysis-reuse-level=5 / scale-factor=0 / refine-intra=0 / refine-inter=0 / refine-mv=0 / no-limit-sao / ctu-info=0
Codec configuration box : hvcC

Audio
ID : 2
Format : AAC LC
Format/Info : Advanced Audio Codec Low Complexity
Codec ID : mp4a-40-2
Duration : 31 s 936 ms
Bit rate mode : Constant
Bit rate : 192 kb/s
Channel(s) : 2 channels
Channel layout : L R
Sampling rate : 48.0 kHz
Frame rate : 46.875 FPS (1024 SPF)
Compression mode : Lossy
Stream size : 749 KiB (0%)
Default : Yes
Alternate group : 1

Flowers 3 : Nikon D3200 Video Test #003 1080 25p 21.9 Mb/s + Tamron 85-210mm f/4.5 FHD





Flowers 3
Camera : Nikon D3200   Video Test #003
Shutter 1250 1080 25p 21.9 Mb/s
Mode M iso 200
Lens : Tamron ZOOM MACRO 1:4.5 85-210mm 55MM BBAR MULTI C.
filmed in MACRO

Complete name : F:\DCIM\103D3200\DSC_7863.MOV
Format : MPEG-4
Format profile : QuickTime
Codec ID : qt 2007.09 (qt /niko)
File size : 84.7 MiB
Duration : 32 s 520 ms
Overall bit rate : 21.8 Mb/s
Encoded date : UTC 2019-04-03 16:20:29

NCDT : NCTG

Video
ID : 1
Format : AVC
Format/Info : Advanced Video Codec
Format profile : High@L4
Format settings : CABAC / 2 Ref Frames
Format settings, CABAC : Yes
Format settings, RefFrames : 2 frames
Format settings, GOP : M=3, N=12
Codec ID : avc1
Codec ID/Info : Advanced Video Coding
Duration : 32 s 520 ms
Bit rate : 20.2 Mb/s
Width : 1 920 pixels
Height : 1 080 pixels
Display aspect ratio : 16:9
Frame rate mode : Constant
Frame rate : 25.000 FPS
Color space : YUV
Chroma subsampling : 4:2:0
Bit depth : 8 bits
Scan type : Progressive
Bits/(Pixel*Frame) : 0.391
Stream size : 78.5 MiB (93%)
Language : English
Encoded date : UTC 2019-04-03 16:20:29

Color range : Full
Color primaries : BT.709
transfer_characteristics_Original : BT.470 System M
Matrix coefficients : BT.601
Codec configuration box : avcC

Audio
ID : 2
Format : PCM
Format settings : Little / Signed
Codec ID : sowt
Duration : 32 s 520 ms
Bit rate mode : Constant
Bit rate : 1 536 kb/s
Channel(s) : 2 channels
Channel layout : L R
Sampling rate : 48.0 kHz
Bit depth : 16 bits
Stream size : 5.95 MiB (7%)
Language : English
Encoded date : UTC 2019-04-03 16:20:29

Flowers 2 : Nikon D3200 Video Test #002 1080 25p 21.9 Mb/s + Tamron 85-210mm f/4.5 FHD



Flowers 2
Camera : Nikon D3200   Video Test #002
https://www.youtube.com/watch?v=iU3JDI4SZmw&feature=youtu.be UPSCALLED TO 4K UHD
Shutter 1250 1080 25p 21.9 Mb/s
Mode M iso 200
Lens : Tamron ZOOM MACRO 1:4.5 85-210mm 55MM BBAR MULTI C.
filmed in MACRO

Complete name : DCIM\103D3200\DSC_7861.MOV
Format : MPEG-4
Format profile : QuickTime
Codec ID : qt 2007.09 (qt /niko)
File size : 83.9 MiB
Duration : 31 s 920 ms
Overall bit rate : 22.1 Mb/s
Encoded date : UTC 2019-04-03 16:19:16

NCDT : NCTG

Video
ID : 1
Format : AVC
Format/Info : Advanced Video Codec
Format profile : High@L4
Format settings : CABAC / 2 Ref Frames
Format settings, CABAC : Yes
Format settings, RefFrames : 2 frames
Format settings, GOP : M=3, N=12
Codec ID : avc1
Codec ID/Info : Advanced Video Coding
Duration : 31 s 920 ms
Bit rate : 20.5 Mb/s
Width : 1 920 pixels
Height : 1 080 pixels
Display aspect ratio : 16:9
Frame rate mode : Constant
Frame rate : 25.000 FPS
Color space : YUV
Chroma subsampling : 4:2:0
Bit depth : 8 bits
Scan type : Progressive
Bits/(Pixel*Frame) : 0.395
Stream size : 77.8 MiB (93%)
Language : English
Encoded date : UTC 2019-04-03 16:19:16

Color range : Full
Color primaries : BT.709
transfer_characteristics_Original : BT.470 System M
Matrix coefficients : BT.601
Codec configuration box : avcC

Audio
ID : 2
Format : PCM
Format settings : Little / Signed
Codec ID : sowt
Duration : 31 s 920 ms
Bit rate mode : Constant
Bit rate : 1 536 kb/s
Channel(s) : 2 channels
Channel layout : L R
Sampling rate : 48.0 kHz
Bit depth : 16 bits
Stream size : 5.84 MiB (7%)
Language : English
Encoded date : UTC 2019-04-03 16:19:16

Flowers 1 : Nikon D3200 Video Test #001 1080 25p 21.9 Mb/s + Tamron 85-210mm f/4.5 FHD




Flowers 1
Camera : Nikon D3200   Video Test #001
Shutter 1250 1080 25p 21.9 Mb/s FHD
Mode M iso 200
Lens : Tamron ZOOM MACRO 1:4.5 85-210mm 55MM BBAR MULTI C.
filmed in MACRO


Complete name : DCIM\103D3200\DSC_7858.MOV
Format : MPEG-4
Format profile : QuickTime
Codec ID : qt 2007.09 (qt /niko)
File size : 103 MiB
Duration : 39 s 240 ms
Overall bit rate : 21.9 Mb/s
Encoded date : UTC 2019-04-03 16:16:45

NCDT : NCTG

Video
ID : 1
Format : AVC
Format/Info : Advanced Video Codec
Format profile : High@L4
Format settings : CABAC / 2 Ref Frames
Format settings, CABAC : Yes
Format settings, RefFrames : 2 frames
Format settings, GOP : M=3, N=12
Codec ID : avc1
Codec ID/Info : Advanced Video Coding
Duration : 39 s 240 ms
Bit rate : 20.4 Mb/s
Width : 1 920 pixels
Height : 1 080 pixels
Display aspect ratio : 16:9
Frame rate mode : Constant
Frame rate : 25.000 FPS
Color space : YUV
Chroma subsampling : 4:2:0
Bit depth : 8 bits
Scan type : Progressive
Bits/(Pixel*Frame) : 0.393
Stream size : 95.2 MiB (93%)
Language : English
Encoded date : UTC 2019-04-03 16:16:45

Color range : Full
Color primaries : BT.709
transfer_characteristics_Original : BT.470 System M
Matrix coefficients : BT.601
Codec configuration box : avcC

Audio
ID : 2
Format : PCM
Format settings : Little / Signed
Codec ID : sowt
Duration : 39 s 240 ms
Bit rate mode : Constant
Bit rate : 1 536 kb/s
Channel(s) : 2 channels
Channel layout : L R
Sampling rate : 48.0 kHz
Bit depth : 16 bits
Stream size : 7.19 MiB (7%)
Language : English
Encoded date : UTC 2019-04-03 16:16:45

Genova città deserta Seconda parte rimaniamo a casa Μένουμε Σπίτι και εμείς

rimaniamo a casa Seconda parte Genova città deserta #StayHome Γένοβα δεύτερο μέρος Μένουμε Σπίτι και εμείς 2nd Part desert Genoa Geno...