Showing posts with label White Tower. Show all posts
Showing posts with label White Tower. Show all posts

c. View from the roof of White Tower Sony a3000 ilce 3000 video test #006 24Mb/s FHD 1080 50i




No3 View from the roof of White Tower of Thessaloniki, Greece
Sony a3000 ilce 3000 video test #006 24Mb/s FHD 1080 50i

Complete name : SONY\ILCE-3000\STREAM\00011 (2).MTS
Format : BDAV
Format/Info : Blu-ray Video
File size : 22.6 MiB
Duration : 8 s 820 ms
Overall bit rate mode : Variable
Overall bit rate : 21.4 Mb/s
Maximum Overall bit rate : 24.0 Mb/s
Recorded date : 2017-08-13 17:54:27+03:00
Writing application : Sony ILCE-3000

Video
ID : 4113 (0x1011)
Menu ID : 1 (0x1)
Format : AVC
Format/Info : Advanced Video Codec
Format profile : High@L4
Format settings : CABAC / 2 Ref Frames
Format settings, CABAC : Yes
Format settings, RefFrames : 2 frames
Format settings, picture structure : Frame
Codec ID : 27
Duration : 8 s 840 ms
Bit rate mode : Variable
Bit rate : 20.3 Mb/s
Maximum bit rate : 22.0 Mb/s
Width : 1 920 pixels
Height : 1 080 pixels
Display aspect ratio : 16:9
Frame rate : 25.000 FPS
Color space : YUV
Chroma subsampling : 4:2:0
Bit depth : 8 bits
Scan type : Interlaced
Scan type, store method : Interleaved fields
Scan order : Top Field First
Bits/(Pixel*Frame) : 0.392
Stream size : 21.4 MiB (95%)
IrisFNumber : 16.000000

Audio
ID : 4352 (0x1100)
Menu ID : 1 (0x1)
Format : AC-3
Format/Info : Audio Coding 3
Commercial name : Dolby Digital
Codec ID : 129
Duration : 8 s 864 ms
Bit rate mode : Constant
Bit rate : 256 kb/s
Channel(s) : 2 channels
Channel layout : L R
Sampling rate : 48.0 kHz
Frame rate : 31.250 FPS (1536 SPF)
Bit depth : 16 bits
Compression mode : Lossy
Stream size : 277 KiB (1%)
Service kind : Complete Main

Text
ID : 4608 (0x1200)
Menu ID : 1 (0x1)
Format : PGS
Codec ID : 144
Duration : 8 s 255 ms

b. View from the roof of White Tower Sony a3000 ilce 3000 video test #005 24Mb/s FHD 1080 50i



No2 View from the roof of White Tower of Thessaloniki, Greece
Sony a3000 ilce 3000 video test #005 24Mb/s FHD 1080 50i

Complete name : SONY\ILCE-3000\STREAM\00010 (2).MTS
Format : BDAV
Format/Info : Blu-ray Video
File size : 33.5 MiB
Duration : 12 s 960 ms
Overall bit rate mode : Variable
Overall bit rate : 21.6 Mb/s
Maximum Overall bit rate : 24.0 Mb/s
Recorded date : 2017-08-13 17:51:31+03:00
Writing application : Sony ILCE-3000

Video
ID : 4113 (0x1011)
Menu ID : 1 (0x1)
Format : AVC
Format/Info : Advanced Video Codec
Format profile : High@L4
Format settings : CABAC / 2 Ref Frames
Format settings, CABAC : Yes
Format settings, RefFrames : 2 frames
Format settings, picture structure : Frame
Codec ID : 27
Duration : 13 s 0 ms
Bit rate mode : Variable
Bit rate : 20.5 Mb/s
Maximum bit rate : 22.0 Mb/s
Width : 1 920 pixels
Height : 1 080 pixels
Display aspect ratio : 16:9
Frame rate : 25.000 FPS
Color space : YUV
Chroma subsampling : 4:2:0
Bit depth : 8 bits
Scan type : Interlaced
Scan type, store method : Interleaved fields
Scan order : Top Field First
Bits/(Pixel*Frame) : 0.396
Stream size : 31.8 MiB (95%)
IrisFNumber : 13.000000

Audio
ID : 4352 (0x1100)
Menu ID : 1 (0x1)
Format : AC-3
Format/Info : Audio Coding 3
Commercial name : Dolby Digital
Codec ID : 129
Duration : 13 s 24 ms
Bit rate mode : Constant
Bit rate : 256 kb/s
Channel(s) : 2 channels
Channel layout : L R
Sampling rate : 48.0 kHz
Frame rate : 31.250 FPS (1536 SPF)
Bit depth : 16 bits
Compression mode : Lossy
Stream size : 407 KiB (1%)
Service kind : Complete Main

Text
ID : 4608 (0x1200)
Menu ID : 1 (0x1)
Format : PGS
Codec ID : 144
Duration : 12 s 415 ms

a. View from the roof of White Tower Sony a3000 ilce 3000 video test #004 24Mb/s FHD 1080 50i




No1 View from the roof of White Tower of Thessaloniki, Greece
Sony a3000 ilce 3000 video test #004 24Mb/s FHD 1080 50i

Complete name : SONY\ILCE-3000\STREAM\00009 (2).MTS
Format : BDAV
Format/Info : Blu-ray Video
File size : 24.1 MiB
Duration : 9 s 361 ms
Overall bit rate mode : Variable
Overall bit rate : 21.6 Mb/s
Maximum Overall bit rate : 24.0 Mb/s
Recorded date : 2017-08-13 17:49:45+03:00
Writing application : Sony ILCE-3000

Video
ID : 4113 (0x1011)
Menu ID : 1 (0x1)
Format : AVC
Format/Info : Advanced Video Codec
Format profile : High@L4
Format settings : CABAC / 2 Ref Frames
Format settings, CABAC : Yes
Format settings, RefFrames : 2 frames
Format settings, picture structure : Frame
Codec ID : 27
Duration : 9 s 360 ms
Bit rate mode : Variable
Bit rate : 20.5 Mb/s
Maximum bit rate : 22.0 Mb/s
Width : 1 920 pixels
Height : 1 080 pixels
Display aspect ratio : 16:9
Frame rate : 25.000 FPS
Color space : YUV
Chroma subsampling : 4:2:0
Bit depth : 8 bits
Scan type : Interlaced
Scan type, store method : Interleaved fields
Scan order : Top Field First
Bits/(Pixel*Frame) : 0.395
Stream size : 22.8 MiB (95%)
IrisFNumber : 16.000000

Audio
ID : 4352 (0x1100)
Menu ID : 1 (0x1)
Format : AC-3
Format/Info : Audio Coding 3
Commercial name : Dolby Digital
Codec ID : 129
Duration : 9 s 376 ms
Bit rate mode : Constant
Bit rate : 256 kb/s
Channel(s) : 2 channels
Channel layout : L R
Sampling rate : 48.0 kHz
Frame rate : 31.250 FPS (1536 SPF)
Bit depth : 16 bits
Compression mode : Lossy
Stream size : 293 KiB (1%)
Service kind : Complete Main

Text
ID : 4608 (0x1200)
Menu ID : 1 (0x1)
Format : PGS
Codec ID : 144
Duration : 8 s 775 ms

c. Inside The White Tower of Thessaloniki Sony a3000 ilce 3000 video test #008 24Mb/s FHD 1080 50i



No3 Inside The White Tower of Thessaloniki, Greece
Sony a3000 ilce 3000 video test #008 24Mb/s FHD 1080 50i

Complete name : SONY\ILCE-3000\STREAM\00015 (2).MTS
Format : BDAV
Format/Info : Blu-ray Video
File size : 33.8 MiB
Duration : 12 s 961 ms
Overall bit rate mode : Variable
Overall bit rate : 21.8 Mb/s
Maximum Overall bit rate : 24.0 Mb/s
Recorded date : 2017-08-13 18:10:50+03:00
Writing application : Sony ILCE-3000

Video
ID : 4113 (0x1011)
Menu ID : 1 (0x1)
Format : AVC
Format/Info : Advanced Video Codec
Format profile : High@L4
Format settings : CABAC / 2 Ref Frames
Format settings, CABAC : Yes
Format settings, RefFrames : 2 frames
Format settings, picture structure : Frame
Codec ID : 27
Duration : 13 s 0 ms
Bit rate mode : Variable
Bit rate : 20.7 Mb/s
Maximum bit rate : 22.0 Mb/s
Width : 1 920 pixels
Height : 1 080 pixels
Display aspect ratio : 16:9
Frame rate : 25.000 FPS
Color space : YUV
Chroma subsampling : 4:2:0
Bit depth : 8 bits
Scan type : Interlaced
Scan type, store method : Interleaved fields
Scan order : Top Field First
Bits/(Pixel*Frame) : 0.399
Stream size : 32.0 MiB (95%)
IrisFNumber : 3.500000

Audio
ID : 4352 (0x1100)
Menu ID : 1 (0x1)
Format : AC-3
Format/Info : Audio Coding 3
Commercial name : Dolby Digital
Codec ID : 129
Duration : 13 s 24 ms
Bit rate mode : Constant
Bit rate : 256 kb/s
Channel(s) : 2 channels
Channel layout : L R
Sampling rate : 48.0 kHz
Frame rate : 31.250 FPS (1536 SPF)
Bit depth : 16 bits
Compression mode : Lossy
Stream size : 407 KiB (1%)
Service kind : Complete Main

Text
ID : 4608 (0x1200)
Menu ID : 1 (0x1)
Format : PGS
Codec ID : 144
Duration : 12 s 415 ms

b. Inside The White Tower of Thessaloniki Sony a3000 ilce 3000 video test #007 24Mb/s FHD 1080 50i



No2 Inside The White Tower of Thessaloniki, Greece
Sony a3000 ilce 3000 video test #007 24Mb/s FHD 1080 50i

Complete name : SONY\ILCE-3000\STREAM\00014 (2).MTS
Format : BDAV
Format/Info : Blu-ray Video
File size : 37.6 MiB
Duration : 14 s 491 ms
Overall bit rate mode : Variable
Overall bit rate : 21.7 Mb/s
Maximum Overall bit rate : 24.0 Mb/s
Recorded date : 2017-08-13 18:10:30+03:00
Writing application : Sony ILCE-3000

Video
ID : 4113 (0x1011)
Menu ID : 1 (0x1)
Format : AVC
Format/Info : Advanced Video Codec
Format profile : High@L4
Format settings : CABAC / 2 Ref Frames
Format settings, CABAC : Yes
Format settings, RefFrames : 2 frames
Format settings, picture structure : Frame
Codec ID : 27
Duration : 14 s 560 ms
Bit rate mode : Variable
Bit rate : 20.6 Mb/s
Maximum bit rate : 22.0 Mb/s
Width : 1 920 pixels
Height : 1 080 pixels
Display aspect ratio : 16:9
Frame rate : 25.000 FPS
Color space : YUV
Chroma subsampling : 4:2:0
Bit depth : 8 bits
Scan type : Interlaced
Scan type, store method : Interleaved fields
Scan order : Top Field First
Bits/(Pixel*Frame) : 0.397
Stream size : 35.8 MiB (95%)
IrisFNumber : 3.500000

Audio
ID : 4352 (0x1100)
Menu ID : 1 (0x1)
Format : AC-3
Format/Info : Audio Coding 3
Commercial name : Dolby Digital
Codec ID : 129
Duration : 14 s 560 ms
Bit rate mode : Constant
Bit rate : 256 kb/s
Channel(s) : 2 channels
Channel layout : L R
Sampling rate : 48.0 kHz
Frame rate : 31.250 FPS (1536 SPF)
Bit depth : 16 bits
Compression mode : Lossy
Stream size : 455 KiB (1%)
Service kind : Complete Main

Text
ID : 4608 (0x1200)
Menu ID : 1 (0x1)
Format : PGS
Codec ID : 144
Duration : 13 s 975 ms

a. Inside The White Tower of Thessaloniki Sony a3000 ilce 3000 video test #003 24Mb/s FHD 1080 50i



No1 Inside The White Tower of Thessaloniki, Greece
Sony a3000 ilce 3000 video test #003 24Mb/s FHD 1080 50i

Complete name : SONY\ILCE-3000\STREAM\00006 (2).MTS
Format : BDAV
Format/Info : Blu-ray Video
File size : 28.0 MiB
Duration : 10 s 891 ms
Overall bit rate mode : Variable
Overall bit rate : 21.5 Mb/s
Maximum Overall bit rate : 24.0 Mb/s
Recorded date : 2017-08-13 17:36:29+03:00
Writing application : Sony ILCE-3000

Video
ID : 4113 (0x1011)
Menu ID : 1 (0x1)
Format : AVC
Format/Info : Advanced Video Codec
Format profile : High@L4
Format settings : CABAC / 2 Ref Frames
Format settings, CABAC : Yes
Format settings, RefFrames : 2 frames
Format settings, picture structure : Frame
Codec ID : 27
Duration : 10 s 920 ms
Bit rate mode : Variable
Bit rate : 20.4 Mb/s
Maximum bit rate : 22.0 Mb/s
Width : 1 920 pixels
Height : 1 080 pixels
Display aspect ratio : 16:9
Frame rate : 25.000 FPS
Color space : YUV
Chroma subsampling : 4:2:0
Bit depth : 8 bits
Scan type : Interlaced
Scan type, store method : Interleaved fields
Scan order : Top Field First
Bits/(Pixel*Frame) : 0.394
Stream size : 26.6 MiB (95%)
IrisFNumber : 3.500000

Audio
ID : 4352 (0x1100)
Menu ID : 1 (0x1)
Format : AC-3
Format/Info : Audio Coding 3
Commercial name : Dolby Digital
Codec ID : 129
Duration : 10 s 944 ms
Bit rate mode : Constant
Bit rate : 256 kb/s
Channel(s) : 2 channels
Channel layout : L R
Sampling rate : 48.0 kHz
Frame rate : 31.250 FPS (1536 SPF)
Bit depth : 16 bits
Compression mode : Lossy
Stream size : 342 KiB (1%)
Service kind : Complete Main

Text
ID : 4608 (0x1200)
Menu ID : 1 (0x1)
Format : PGS
Codec ID : 144
Duration : 10 s 335 ms

Genova città deserta Seconda parte rimaniamo a casa Μένουμε Σπίτι και εμείς

rimaniamo a casa Seconda parte Genova città deserta #StayHome Γένοβα δεύτερο μέρος Μένουμε Σπίτι και εμείς 2nd Part desert Genoa Geno...