Showing posts with label Sigma. Show all posts
Showing posts with label Sigma. Show all posts

Full Moon rises : Lumix DMC-GX80 + SIGMA TELEMAC VARIO 2X-3X + PARAGON f/8 500mm f72 4k UHD 25fps




Full Moon rises 13/OCT/2019
Camera : Panasonic Lumix DMC-GX80
Lens: PARAGON f/8 500mm f72 T2 - @ f/16
Teleconverter : SIGMA TELEMAC VARIO 2X 2.5X 3X  m42
video test 4k UHD  3840 x 2160 25fps
PARAGON 500mm f/8
1:8 f= 500mm



Complete name : PHOTO\PANASONIC\DMC-GX80\P1100473.MP4
Format : MPEG-4
Format profile : Base Media / Version 2
Codec ID : mp42 (mp42/avc1)
File size : 963 MiB
Duration : 3 min 1 s
Overall bit rate mode : Variable
Overall bit rate : 44.4 Mb/s
Encoded date : UTC 2019-10-13 19:42:37
PANA : Ê

Video
ID : 1
Format : AVC
Format/Info : Advanced Video Codec
Format profile : High@L5.1
Format settings : CABAC / 2 Ref Frames
Format settings, CABAC : Yes
Format settings, Reference frames : 2 frames
Codec ID : avc1
Codec ID/Info : Advanced Video Coding
Duration : 3 min 1 s
Bit rate mode : Variable
Bit rate : 44.3 Mb/s
Maximum bit rate : 106 Mb/s
Width : 3 840 pixels
Height : 2 160 pixels
Display aspect ratio : 16:9
Frame rate mode : Constant
Frame rate : 25.000 FPS
Color space : YUV
Chroma subsampling : 4:2:0
Bit depth : 8 bits
Scan type : Progressive
Bits/(Pixel*Frame) : 0.214
Stream size : 960 MiB (100%)
Encoded date : UTC 2019-10-13 19:42:37
Color range : Limited
Color primaries : BT.709
Transfer characteristics : BT.709
Matrix coefficients : BT.709
Codec configuration box : avcC

Audio
ID : 2
Format : AAC LC
Format/Info : Advanced Audio Codec Low Complexity
Codec ID : mp4a-40-2
Duration : 3 min 1 s
Source duration : 3 min 1 s
Bit rate mode : Constant
Bit rate : 128 kb/s
Channel(s) : 2 channels
Channel layout : L R
Sampling rate : 48.0 kHz
Frame rate : 46.875 FPS (1024 SPF)
Compression mode : Lossy
Stream size : 2.72 MiB (0%)
Source stream size : 2.72 MiB (0%)
Encoded date : UTC 2019-10-13 19:42:37

Full Moon : Lumix DMC-GX80 + PHOTAX f/8 500mm f72 (mod) + SIGMA TELEMAC VARIO 2X-3X UHD 25fps




Full Moon 13/OCT/2019
Camera : Panasonic Lumix DMC-GX80
Lens: PHOTAX f/8 500mm f72 T2 - @ f/16 T2 modified removed internal group the two elements it seems to be 400mm
Teleconverter : SIGMA TELEMAC VARIO 2X 2.5X 3X  m42
video test 4k UHD  3 840 x 2 160  25fps
PHOTAX 500mm f/8
1:8 f= 500mm


Complete name :DCIM\110_PANA\P1100383.MP4
Format : MPEG-4
Format profile : Base Media / Version 2
Codec ID : mp42 (mp42/avc1)
File size : 1.48 GiB
Duration : 3 min 17 s
Overall bit rate mode : Variable
Overall bit rate : 64.4 Mb/s
Encoded date : UTC 2019-10-13 02:32:16
PANA : Ê

Video
ID : 1
Format : AVC
Format/Info : Advanced Video Codec
Format profile : High@L5.1
Format settings : CABAC / 2 Ref Frames
Format settings, CABAC : Yes
Format settings, Reference frames : 2 frames
Codec ID : avc1
Codec ID/Info : Advanced Video Coding
Duration : 3 min 17 s
Bit rate mode : Variable
Bit rate : 64.3 Mb/s
Maximum bit rate : 106 Mb/s
Width : 3 840 pixels
Height : 2 160 pixels
Display aspect ratio : 16:9
Frame rate mode : Constant
Frame rate : 25.000 FPS
Color space : YUV
Chroma subsampling : 4:2:0
Bit depth : 8 bits
Scan type : Progressive
Bits/(Pixel*Frame) : 0.310
Stream size : 1.48 GiB (100%)
Encoded date : UTC 2019-10-13 02:32:16
Color range : Limited
Color primaries : BT.709
Transfer characteristics : BT.709
Matrix coefficients : BT.709
Codec configuration box : avcC

Audio
ID : 2
Format : AAC LC
Format/Info : Advanced Audio Codec Low Complexity
Codec ID : mp4a-40-2
Duration : 3 min 17 s
Source duration : 3 min 17 s
Bit rate mode : Constant
Bit rate : 128 kb/s
Channel(s) : 2 channels
Channel layout : L R
Sampling rate : 48.0 kHz
Frame rate : 46.875 FPS (1024 SPF)
Compression mode : Lossy
Stream size : 2.95 MiB (0%)
Source stream size : 2.96 MiB (0%)
Encoded date : UTC 2019-10-13 02:32:16

Full Moon : Panasonic Lumix DMC-GX80 + PARAGON f/8 500mm f72 + SIGMA TELEMAC VARIO 2X-3X UHD 25fps



Full Moon 13/OCT/2019
Camera : Panasonic Lumix DMC-GX80
Lens: PARAGON f/8 500mm f72 T2 - @ f/16
Teleconverter : SIGMA TELEMAC VARIO 2X 2.5X 3X  m42
video test 4k UHD  3 840 x 2 160  25fps
PARAGON 500mm f/8

Complete name : DCIM\110_PANA\P1100380.MP4
Format : MPEG-4
Format profile : Base Media / Version 2
Codec ID : mp42 (mp42/avc1)
File size : 1.42 GiB
Duration : 4 min 58 s
Overall bit rate mode : Variable
Overall bit rate : 40.9 Mb/s
Encoded date : UTC 2019-10-13 01:52:20
PANA : Ê 

Video
ID : 1
Format : AVC
Format/Info : Advanced Video Codec
Format profile : High@L5.1
Format settings : CABAC / 2 Ref Frames
Format settings, CABAC : Yes
Format settings, Reference frames : 2 frames
Codec ID : avc1
Codec ID/Info : Advanced Video Coding
Duration : 4 min 58 s
Bit rate mode : Variable
Bit rate : 40.7 Mb/s
Maximum bit rate : 106 Mb/s
Width : 3 840 pixels
Height : 2 160 pixels
Display aspect ratio : 16:9
Frame rate mode : Constant
Frame rate : 25.000 FPS
Color space : YUV
Chroma subsampling : 4:2:0
Bit depth : 8 bits
Scan type : Progressive
Bits/(Pixel*Frame) : 0.196
Stream size : 1.42 GiB (100%)
Encoded date : UTC 2019-10-13 01:52:20
Color range : Limited
Color primaries : BT.709
Transfer characteristics : BT.709
Matrix coefficients : BT.709
Codec configuration box : avcC

Audio
ID : 2
Format : AAC LC
Format/Info : Advanced Audio Codec Low Complexity
Codec ID : mp4a-40-2
Duration : 4 min 58 s
Source duration : 4 min 58 s
Bit rate mode : Constant
Bit rate : 128 kb/s
Channel(s) : 2 channels
Channel layout : L R
Sampling rate : 48.0 kHz
Frame rate : 46.875 FPS (1024 SPF)
Compression mode : Lossy
Stream size : 4.46 MiB (0%)
Source stream size : 4.46 MiB (0%)
Encoded date : UTC 2019-10-13 01:52:20

Moon : Samsung NX20 + PARAGON f/8 500mm f72 + SIGMA TELEMAC VARIO 2X-3X FHD 1080 25fps



Moon 13/OCT/2019
Camera : Samsung NX20
Lens: PARAGON f/8 500mm f72 T2 - @ f/16
Teleconverter : SIGMA TELEMAC VARIO 2X 2.5X 3X  m42
video test FHD 1080 25fps
PARAGON 500mm f/8

Complete name : DCIM\104PHOTO\SAM_4349.MP4
Format : MPEG-4
Format profile : Base Media / Version 2
Codec ID : mp42 (mp42/isom/avc1)
File size : 162 MiB
Duration : 4 min 6 s
Overall bit rate : 5 515 kb/s

Video
ID : 1
Format : AVC
Format/Info : Advanced Video Codec
Format profile : High@L4.1
Format settings : 2 Ref Frames
Format settings, CABAC : No
Format settings, RefFrames : 2 frames
Format settings, GOP : M=1, N=25
Codec ID : avc1
Codec ID/Info : Advanced Video Coding
Duration : 4 min 6 s
Bit rate : 5 386 kb/s
Width : 1 920 pixels
Height : 1 080 pixels
Display aspect ratio : 16:9
Frame rate mode : Constant
Frame rate : 25.000 FPS
Color space : YUV
Chroma subsampling : 4:2:0
Bit depth : 8 bits
Scan type : Progressive
Bits/(Pixel*Frame) : 0.104
Stream size : 158 MiB (98%)
Language : English
Codec configuration box : avcC

Audio
ID : 2
Format : AAC LC
Format/Info : Advanced Audio Codec Low Complexity
Codec ID : mp4a-40-2
Duration : 4 min 6 s
Bit rate mode : Constant
Bit rate : 128 kb/s
Channel(s) : 2 channels
Channel layout : L R
Sampling rate : 32.0 kHz
Frame rate : 31.250 FPS (1024 SPF)
Compression mode : Lossy
Stream size : 3.72 MiB (2%)
Language : English

Moon : Samsung NX20 + PHOTAX f/8 500mm f72 (mod) + SIGMA TELEMAC VARIO 2X-3X FHD 810 24fps



Moon 13/OCT/2019
Camera : Samsung NX20
Lens: PHOTAX f/8 500mm f72 T2 - @ f/16 T2 modified removed internal group the two elements it seems to be 400mm
Teleconverter : SIGMA TELEMAC VARIO 2X 2.5X 3X  m42
PHOTAX 500mm f/8 video test FHD 810 24fps
1:8 f= 500mm


Complete name :DCIM\104PHOTO\SAM_4347.MP4
Format : MPEG-4
Format profile : Base Media / Version 2
Codec ID : mp42 (mp42/isom/avc1)
File size : 170 MiB
Duration : 4 min 7 s
Overall bit rate : 5 764 kb/s

Video
ID : 1
Format : AVC
Format/Info : Advanced Video Codec
Format profile : High@L4.1
Format settings : 2 Ref Frames
Format settings, CABAC : No
Format settings, RefFrames : 2 frames
Format settings, GOP : M=1, N=24
Codec ID : avc1
Codec ID/Info : Advanced Video Coding
Duration : 4 min 7 s
Bit rate : 5 633 kb/s
Width : 1 920 pixels
Height : 810 pixels
Display aspect ratio : 2.40:1
Frame rate mode : Constant
Frame rate : 24.000 FPS
Color space : YUV
Chroma subsampling : 4:2:0
Bit depth : 8 bits
Scan type : Progressive
Bits/(Pixel*Frame) : 0.151
Stream size : 166 MiB (98%)
Language : English
Codec configuration box : avcC

Audio
ID : 2
Format : AAC LC
Format/Info : Advanced Audio Codec Low Complexity
Codec ID : mp4a-40-2
Duration : 4 min 7 s
Bit rate mode : Constant
Bit rate : 128 kb/s
Channel(s) : 2 channels
Channel layout : L R
Sampling rate : 32.0 kHz
Frame rate : 31.250 FPS (1024 SPF)
Compression mode : Lossy
Stream size : 3.74 MiB (2%)
Language : English

Moon : Sony SLT-A33 + PHOTAX f/8 500mm f72 (mod) + SIGMA TELEMAC VARIO 2X-3X FHD 1080 25fps



Moon 11/OCT/2019
Camera : Sony SLT-A33
Lens: PHOTAX f/8 500mm f72 T2 - @ f/11 T2 modified removed internal group the two elements it seems to be 400mm
Teleconverter : SIGMA TELEMAC VARIO 2X 2.5X 3X  m42
SLT-A33 video test FHD 1080 25fps
1:8 f= 500mm


Complete name : STREAM\00229.MTS
Format : BDAV
Format/Info : Blu-ray Video
File size : 251 MiB
Duration : 2 min 3 s
Overall bit rate mode : Variable
Overall bit rate : 17.1 Mb/s
Maximum Overall bit rate : 18.0 Mb/s
Recorded date : 2019-10-12 01:08:47+02:00
Writing application : Sony SLT-A33

Video
ID : 4113 (0x1011)
Menu ID : 1 (0x1)
Format : AVC
Format/Info : Advanced Video Codec
Format profile : High@L4
Format settings : CABAC / 2 Ref Frames
Format settings, CABAC : Yes
Format settings, Reference frames : 2 frames
Format settings, GOP : M=2, N=13
Codec ID : 27
Duration : 2 min 3 s
Bit rate mode : Variable
Bit rate : 16.0 Mb/s
Width : 1 920 pixels
Height : 1 080 pixels
Display aspect ratio : 16:9
Frame rate : 25.000 FPS
Color space : YUV
Chroma subsampling : 4:2:0
Bit depth : 8 bits
Scan type : Interlaced
Scan type, store method : Separated fields
Scan order : Top Field First
Bits/(Pixel*Frame) : 0.309
Stream size : 237 MiB (94%)
IrisFNumber : 1.000000

Audio
ID : 4352 (0x1100)
Menu ID : 1 (0x1)
Format : AC-3
Format/Info : Audio Coding 3
Commercial name : Dolby Digital
Codec ID : 129
Duration : 2 min 3 s
Bit rate mode : Constant
Bit rate : 256 kb/s
Channel(s) : 2 channels
Channel layout : L R
Sampling rate : 48.0 kHz
Frame rate : 31.250 FPS (1536 SPF)
Compression mode : Lossy
Delay relative to video : -80 ms
Stream size : 3.76 MiB (1%)
Service kind : Complete Main

Text
ID : 4608 (0x1200)
Menu ID : 1 (0x1)
Format : PGS
Codec ID : 144
Duration : 2 min 2 s
Delay relative to video : -80 ms

Moon : Nikon D3200 + PARAGON f/8 500mm f72 + SIGMA TELEMAC VARIO 2X-3X FHD 1080 25p



Moon 12/OCT/2019
Camera : Nikon D3200 in manual , shutter 1/300, iso 200
Lens: PARAGON f/8 500mm f72 T2 - @ f/11 T2
Teleconverter : SIGMA TELEMAC VARIO 2X 2.5X 3X  m42
Video  test 1920 1080 25p
1:8 f= 500mm


Complete name :DCIM\122D3200\DSC_8119.MOV
Format : MPEG-4
Format profile : QuickTime
Codec ID : qt 2007.09 (qt /niko)
File size : 532 MiB
Duration : 3 min 27 s
Overall bit rate : 21.5 Mb/s
Encoded date : UTC 2019-10-12 00:21:29
NCDT : NCTG

Video
ID : 1
Format : AVC
Format/Info : Advanced Video Codec
Format profile : High@L4
Format settings : CABAC / 2 Ref Frames
Format settings, CABAC : Yes
Format settings, Reference frames : 2 frames
Format settings, GOP : M=3, N=12
Codec ID : avc1
Codec ID/Info : Advanced Video Coding
Duration : 3 min 27 s
Bit rate : 20.0 Mb/s
Width : 1 920 pixels
Height : 1 080 pixels
Display aspect ratio : 16:9
Frame rate mode : Constant
Frame rate : 25.000 FPS
Color space : YUV
Chroma subsampling : 4:2:0
Bit depth : 8 bits
Scan type : Progressive
Bits/(Pixel*Frame) : 0.385
Stream size : 494 MiB (93%)
Language : English
Encoded date : UTC 2019-10-12 00:21:29
Color range : Full
Color primaries : BT.709
transfer_characteristics_Original : BT.470 System M
Matrix coefficients : BT.601
Codec configuration box : avcC

Audio
ID : 2
Format : PCM
Format settings : Little / Signed
Codec ID : sowt
Duration : 3 min 27 s
Bit rate mode : Constant
Bit rate : 1 536 kb/s
Channel(s) : 2 channels
Channel layout : L R
Sampling rate : 48.0 kHz
Bit depth : 16 bits
Stream size : 38.0 MiB (7%)
Language : English
Encoded date : UTC 2019-10-12 00:21:29

Half Moon : SIGMA DL ZOOM 75-300mm f/4--5.6 55mm + Olympus OM-D E-M10 FHD 30FPS



Half Moon FHD
Camera Olympus OM-D E-M10
 M Mode 200 iso
Lens SIGMA DL ZOOM 75-300mm  f/4--5.6  55m  @ f/8
 OLYMPUS OM to EOS to M4/3
with Crop Sensorc ois On

Complete name : DCIM\100OLYMP\PA060003.MOV
Format : MPEG-4
Format profile : QuickTime
Codec ID : qt 2011.07 (qt )
File size : 303 MiB
Duration : 3 min 53 s
Overall bit rate : 10.9 Mb/s
Encoded date : UTC 2019-10-06 20:05:47
Tagged date : UTC 2019-10-06 20:05:47
TAGS : 8"R

Video
ID : 1
Format : AVC
Format/Info : Advanced Video Codec
Format profile : High@L4.1
Format settings : 2 Ref Frames
Format settings, CABAC : No
Format settings, RefFrames : 2 frames
Format settings, GOP : M=3, N=8
Codec ID : avc1
Codec ID/Info : Advanced Video Coding
Duration : 3 min 53 s
Bit rate : 9 295 kb/s
Width : 1 920 pixels
Height : 1 080 pixels
Display aspect ratio : 16:9
Frame rate mode : Constant
Frame rate : 29.970 (30000/1001) FPS
Color space : YUV
Chroma subsampling : 4:2:0
Bit depth : 8 bits
Scan type : Progressive
Bits/(Pixel*Frame) : 0.150
Stream size : 259 MiB (86%)
Language : Japanese
Encoded date : UTC 2019-10-06 20:05:47
Tagged date : UTC 2019-10-06 20:05:47
Color range : Full
Color primaries : BT.601 NTSC
Transfer characteristics : BT.601
Matrix coefficients : BT.601
Menus : 0
Codec configuration box : avcC

Audio
ID : 2
Format : PCM
Format settings : Little / Signed
Codec ID : sowt
Duration : 3 min 53 s
Source duration : 3 min 53 s
Bit rate mode : Constant
Bit rate : 1 536 kb/s
Channel(s) : 2 channels
Channel layout : L R
Sampling rate : 48.0 kHz
Bit depth : 16 bits
Stream size : 42.8 MiB (14%)
Source stream size : 42.8 MiB (14%)
Language : Japanese
Encoded date : UTC 2019-10-06 20:05:47

   

Half Moon : SIGMA ZOOM λ II f/4.5-5.6 75-300mm 55mm + Olympus OM-D E-M10 FHD 30FPS



Half Moon FHD
Camera Olympus OM-D E-M10
 M Mode 200 iso
Lens SIGMA ZOOM λ II  f/4.5-5. 75-300mm 55mm  @ f/8
    OLYMPUS OM to EOS to M4/3
with Crop Sensorc ois ON

Complete name : DCIM\100OLYMP\PA060002.MOV
Format : MPEG-4
Format profile : QuickTime
Codec ID : qt 2011.07 (qt )
File size : 358 MiB
Duration : 3 min 58 s
Overall bit rate : 12.6 Mb/s
Encoded date : UTC 2019-10-06 19:58:23
Tagged date : UTC 2019-10-06 19:58:23
TAGS : 8"R

Video
ID : 1
Format : AVC
Format/Info : Advanced Video Codec
Format profile : High@L4.1
Format settings : 2 Ref Frames
Format settings, CABAC : No
Format settings, RefFrames : 2 frames
Format settings, GOP : M=3, N=8
Codec ID : avc1
Codec ID/Info : Advanced Video Coding
Duration : 3 min 58 s
Bit rate : 11.0 Mb/s
Width : 1 920 pixels
Height : 1 080 pixels
Display aspect ratio : 16:9
Frame rate mode : Constant
Frame rate : 29.970 (30000/1001) FPS
Color space : YUV
Chroma subsampling : 4:2:0
Bit depth : 8 bits
Scan type : Progressive
Bits/(Pixel*Frame) : 0.177
Stream size : 313 MiB (88%)
Language : Japanese
Encoded date : UTC 2019-10-06 19:58:23
Tagged date : UTC 2019-10-06 19:58:23
Color range : Full
Color primaries : BT.601 NTSC
Transfer characteristics : BT.601
Matrix coefficients : BT.601
Menus : 0
Codec configuration box : avcC

Audio
ID : 2
Format : PCM
Format settings : Little / Signed
Codec ID : sowt
Duration : 3 min 58 s
Source duration : 3 min 58 s
Bit rate mode : Constant
Bit rate : 1 536 kb/s
Channel(s) : 2 channels
Channel layout : L R
Sampling rate : 48.0 kHz
Bit depth : 16 bits
Stream size : 43.6 MiB (12%)
Source stream size : 43.6 MiB (12%)
Language : Japanese
Encoded date : UTC 2019-10-06 19:58:23

SIGMA ZOOM λ II 75-300mm
SIGMA 75-300mm  f/4.5-5.6

Genova città deserta Seconda parte rimaniamo a casa Μένουμε Σπίτι και εμείς

rimaniamo a casa Seconda parte Genova città deserta #StayHome Γένοβα δεύτερο μέρος Μένουμε Σπίτι και εμείς 2nd Part desert Genoa Geno...