Showing posts with label Mountain. Show all posts
Showing posts with label Mountain. Show all posts

Kissavos mountain Greece testing zoom 10x : Canon HG10 video test AVCHD 1080 50i




Kissavos mountain Greece testing zoom 10x Camera : Canon HG10 Lens: Canon Hd video lens 6.1-61mm f/1.8-2.8. 35 mm equivalent: : 43.6-436 mm Mode AUTO stabilizer ON video test 1080 FHD 1440 x 1080 50i Don’t forget to click the bell to turn on post notifications! Nikolaos Instagram: https://www.instagram.com/sakellarisnikolaos/ Twitter: https://twitter.com/SakellarisNiko Facebook: https://www.facebook.com/nikolaos.sakellaris/ Blog: https://video-photo-blog.blogspot.com/ Complete name : Desktop\hg10\00015.MTS Format : BDAV Format/Info : Blu-ray Video File size : 125 MiB Duration : 1 min 11 s Overall bit rate mode : Variable Overall bit rate : 14.6 Mb/s Maximum Overall bit rate : 18.0 Mb/s Recorded date : 2020-01-08 15:58:33+02:00 Writing application : Canon Video ID : 4113 (0x1011) Menu ID : 1 (0x1) Format : AVC Format/Info : Advanced Video Codec Format profile : High@L4 Format settings : CABAC / 2 Ref Frames Format settings, CABAC : Yes Format settings, Reference frames : 2 frames Format settings, GOP : M=3, N=12 Codec ID : 27 Duration : 1 min 11 s Bit rate mode : Variable Bit rate : 13.8 Mb/s Maximum bit rate : 16.0 Mb/s Width : 1 440 pixels Height : 1 080 pixels Display aspect ratio : 16:9 Frame rate : 25.000 FPS Color space : YUV Chroma subsampling : 4:2:0 Bit depth : 8 bits Scan type : Interlaced Scan type, store method : Separated fields Scan order : Top Field First Bits/(Pixel*Frame) : 0.355 Stream size : 118 MiB (94%) Audio ID : 4352 (0x1100) Menu ID : 1 (0x1) Format : AC-3 Format/Info : Audio Coding 3 Commercial name : Dolby Digital Codec ID : 129 Duration : 1 min 11 s Bit rate mode : Constant Bit rate : 256 kb/s Channel(s) : 2 channels Channel layout : L R Sampling rate : 48.0 kHz Frame rate : 31.250 FPS (1536 SPF) Compression mode : Lossy Delay relative to video : -80 ms Stream size : 2.18 MiB (2%) Service kind : Complete Main

Olympus mountain Greece testing zoom 10x : Canon HG10 video test AVCHD 1080 50i




Olympus mountain Greece testing zoom 10x Camera : Canon HG10 Lens: Canon Hd video lens 6.1-61mm f/1.8-2.8. 35 mm equivalent: : 43.6-436 mm Mode AUTO stabilizer ON video test 1080 FHD 1440 x 1080 50i Don’t forget to click the bell to turn on post notifications! Nikolaos Instagram: https://www.instagram.com/sakellarisnikolaos/ Twitter: https://twitter.com/SakellarisNiko Facebook: https://www.facebook.com/nikolaos.sakellaris/ Blog: https://video-photo-blog.blogspot.com/ Complete name : Desktop\hg10\00014.MTS Format : BDAV Format/Info : Blu-ray Video File size : 149 MiB Duration : 1 min 28 s Overall bit rate mode : Variable Overall bit rate : 14.1 Mb/s Maximum Overall bit rate : 18.0 Mb/s Recorded date : 2020-01-08 15:56:51+02:00 Writing application : Canon Video ID : 4113 (0x1011) Menu ID : 1 (0x1) Format : AVC Format/Info : Advanced Video Codec Format profile : High@L4 Format settings : CABAC / 2 Ref Frames Format settings, CABAC : Yes Format settings, Reference frames : 2 frames Format settings, GOP : M=3, N=12 Codec ID : 27 Duration : 1 min 28 s Bit rate mode : Variable Bit rate : 13.2 Mb/s Maximum bit rate : 16.0 Mb/s Width : 1 440 pixels Height : 1 080 pixels Display aspect ratio : 16:9 Frame rate : 25.000 FPS Color space : YUV Chroma subsampling : 4:2:0 Bit depth : 8 bits Scan type : Interlaced Scan type, store method : Separated fields Scan order : Top Field First Bits/(Pixel*Frame) : 0.341 Stream size : 140 MiB (94%) Audio ID : 4352 (0x1100) Menu ID : 1 (0x1) Format : AC-3 Format/Info : Audio Coding 3 Commercial name : Dolby Digital Codec ID : 129 Duration : 1 min 28 s Bit rate mode : Constant Bit rate : 256 kb/s Channel(s) : 2 channels Channel layout : L R Sampling rate : 48.0 kHz Frame rate : 31.250 FPS (1536 SPF) Compression mode : Lossy Delay relative to video : -80 ms Stream size : 2.71 MiB (2%) Service kind : Complete Main

Genova città deserta Seconda parte rimaniamo a casa Μένουμε Σπίτι και εμείς

rimaniamo a casa Seconda parte Genova città deserta #StayHome Γένοβα δεύτερο μέρος Μένουμε Σπίτι και εμείς 2nd Part desert Genoa Geno...