Showing posts with label Alcazar. Show all posts
Showing posts with label Alcazar. Show all posts

Ftom Alcazar Park to 2nd Penios River bridge Larissa Sony HDR-CX320E 50p



Alcazar park
Botanical Collection
Mini golf
Public swimming pool
Alcazar Stadium
2nd Penios River bridge
Pinios river bridge
Aesthetic Larissa Astir
Bmx - Skateboard

Larissa - Thessaly Greece
Sony HDR-CX320E
 video test #003 50p

Complete name : PRIVATE\AVCHD\BDMV\STREAM\00017.MTS
Format : BDAV
Format/Info : Blu-ray Video
File size : 296 MiB
Duration : 1 min 33 s
Overall bit rate mode : Variable
Overall bit rate : 26.5 Mb/s
Maximum Overall bit rate : 28.0 Mb/s
Recorded date : 2013-01-03 03:24:06+00:00
Writing application : Sony HDR-CX320E

Video
ID : 4113 (0x1011)
Menu ID : 1 (0x1)
Format : AVC
Format/Info : Advanced Video Codec
Format profile : High@L4.2
Format settings : CABAC / 2 Ref Frames
Format settings, CABAC : Yes
Format settings, Reference frames : 2 frames
Format settings, GOP : M=1, N=12
Codec ID : 27
Duration : 1 min 33 s
Bit rate mode : Variable
Bit rate : 25.2 Mb/s
Maximum bit rate : 26.0 Mb/s
Width : 1 920 pixels
Height : 1 080 pixels
Display aspect ratio : 16:9
Frame rate : 50.000 FPS
Color space : YUV
Chroma subsampling : 4:2:0
Bit depth : 8 bits
Scan type : Progressive
Bits/(Pixel*Frame) : 0.243
Stream size : 281 MiB (95%)
IrisFNumber : 3.400000

Audio
ID : 4352 (0x1100)
Menu ID : 1 (0x1)
Format : AC-3
Format/Info : Audio Coding 3
Commercial name : Dolby Digital
Codec ID : 129
Duration : 1 min 33 s
Bit rate mode : Constant
Bit rate : 256 kb/s
Channel(s) : 2 channels
Channel layout : L R
Sampling rate : 48.0 kHz
Frame rate : 31.250 FPS (1536 SPF)
Bit depth : 16 bits
Compression mode : Lossy
Stream size : 2.86 MiB (1%)
Service kind : Complete Main

Text
ID : 4608 (0x1200)
Menu ID : 1 (0x1)
Format : PGS
Codec ID : 144
Duration : 1 min 33 s

Ftom 1st Penios River bridge to Alcazar Park Larissa Sony HDR-CX320E 50p




Ftom
 1st Penios River bridge
Pinios river bridge
( Grigoriou Lampraki )
Taxi Stand Alcazar
 Alcazar Park 
Larissa - Thessaly Greece
Sony HDR-CX320E
 video test #002 50p


Complete name : PRIVATE\AVCHD\BDMV\STREAM\00016.MTS
Format : BDAV
Format/Info : Blu-ray Video
File size : 273 MiB
Duration : 1 min 26 s
Overall bit rate mode : Variable
Overall bit rate : 26.5 Mb/s
Maximum Overall bit rate : 28.0 Mb/s
Recorded date : 2013-01-03 03:22:20+00:00
Writing application : Sony HDR-CX320E

Video
ID : 4113 (0x1011)
Menu ID : 1 (0x1)
Format : AVC
Format/Info : Advanced Video Codec
Format profile : High@L4.2
Format settings : CABAC / 2 Ref Frames
Format settings, CABAC : Yes
Format settings, Reference frames : 2 frames
Format settings, GOP : M=1, N=12
Codec ID : 27
Duration : 1 min 26 s
Bit rate mode : Variable
Bit rate : 25.2 Mb/s
Maximum bit rate : 26.0 Mb/s
Width : 1 920 pixels
Height : 1 080 pixels
Display aspect ratio : 16:9
Frame rate : 50.000 FPS
Color space : YUV
Chroma subsampling : 4:2:0
Bit depth : 8 bits
Scan type : Progressive
Bits/(Pixel*Frame) : 0.243
Stream size : 260 MiB (95%)
IrisFNumber : 3.400000

Audio
ID : 4352 (0x1100)
Menu ID : 1 (0x1)
Format : AC-3
Format/Info : Audio Coding 3
Commercial name : Dolby Digital
Codec ID : 129
Duration : 1 min 26 s
Bit rate mode : Constant
Bit rate : 256 kb/s
Channel(s) : 2 channels
Channel layout : L R
Sampling rate : 48.0 kHz
Frame rate : 31.250 FPS (1536 SPF)
Bit depth : 16 bits
Compression mode : Lossy
Stream size : 2.64 MiB (1%)
Service kind : Complete Main

Text
ID : 4608 (0x1200)
Menu ID : 1 (0x1)
Format : PGS
Codec ID : 144
Duration : 1 min 25 s

Genova città deserta Seconda parte rimaniamo a casa Μένουμε Σπίτι και εμείς

rimaniamo a casa Seconda parte Genova città deserta #StayHome Γένοβα δεύτερο μέρος Μένουμε Σπίτι και εμείς 2nd Part desert Genoa Geno...