Showing posts with label Canon FD 50mm f/1.4. Show all posts
Showing posts with label Canon FD 50mm f/1.4. Show all posts

Fireworks new years eve Larissa 2019




Fireworks new years eve Larissa 2019
Samsung NX1100 wirh Canon FL 50mm f/1.4

Complete name : SAMSUNG\NX1100\VIDEO\12121170.MP4
Format : MPEG-4
Format profile : Base Media / Version 2
Codec ID : mp42 (mp42/isom/avc1)
File size : 351 MiB
Duration : 5 min 53 s
Overall bit rate : 8 332 kb/s

Video
ID : 1
Format : AVC
Format/Info : Advanced Video Codec
Format profile : High@L4.1
Format settings : 2 Ref Frames
Format settings, CABAC : No
Format settings, Reference frames : 2 frames
Format settings, GOP : M=1, N=24
Codec ID : avc1
Codec ID/Info : Advanced Video Coding
Duration : 5 min 52 s
Bit rate : 8 201 kb/s
Width : 1 920 pixels
Height : 810 pixels
Display aspect ratio : 2.40:1
Frame rate mode : Constant
Frame rate : 24.000 FPS
Color space : YUV
Chroma subsampling : 4:2:0
Bit depth : 8 bits
Scan type : Progressive
Bits/(Pixel*Frame) : 0.220
Stream size : 345 MiB (98%)
Language : English
Codec configuration box : avcC

Audio
ID : 2
Format : AAC LC
Format/Info : Advanced Audio Codec Low Complexity
Codec ID : mp4a-40-2
Duration : 5 min 53 s
Bit rate mode : Constant
Bit rate : 128 kb/s
Channel(s) : 2 channels
Channel layout : L R
Sampling rate : 32.0 kHz
Frame rate : 31.250 FPS (1024 SPF)
Compression mode : Lossy
Stream size : 5.30 MiB (2%)
Language : English

2 Depth of field test f/1.4 to F/16 OLYMPUS OM-D E-M10 withCanon FL 50mm f/1.4 FHD 30fps




2 Depth of field test
OLYMPUS\OM-D E-M10 FHD 30fps 
Depth of field test Canon FL 50mm f/1.4  from f/1.4  to F/16
Video Test


Complete name : F:\PHOTO\OLYMPUS\OM-D E-M10\video\PA060073.MOV
Format : MPEG-4
Format profile : QuickTime
Codec ID : qt 2011.07 (qt )
File size : 70.2 MiB
Duration : 30 s 30 ms
Overall bit rate : 19.6 Mb/s
Encoded date : UTC 2019-10-06 13:49:06
Tagged date : UTC 2019-10-06 13:49:06
TAGS : 8"R

Video
ID : 1
Format : AVC
Format/Info : Advanced Video Codec
Format profile : High@L4.1
Format settings : 2 Ref Frames
Format settings, CABAC : No
Format settings, Reference frames : 2 frames
Format settings, GOP : M=3, N=8
Codec ID : avc1
Codec ID/Info : Advanced Video Coding
Duration : 30 s 30 ms
Bit rate : 17.8 Mb/s
Width : 1 920 pixels
Height : 1 080 pixels
Display aspect ratio : 16:9
Frame rate mode : Constant
Frame rate : 29.970 (30000/1001) FPS
Color space : YUV
Chroma subsampling : 4:2:0
Bit depth : 8 bits
Scan type : Progressive
Bits/(Pixel*Frame) : 0.287
Stream size : 63.8 MiB (91%)
Language : Japanese
Encoded date : UTC 2019-10-06 13:49:06
Tagged date : UTC 2019-10-06 13:49:06
Color range : Full
Color primaries : BT.601 NTSC
Transfer characteristics : BT.601
Matrix coefficients : BT.601
Menus : 0
Codec configuration box : avcC

Audio
ID : 2
Format : PCM
Format settings : Little / Signed
Codec ID : sowt
Duration : 30 s 30 ms
Source duration : 30 s 40 ms
Bit rate mode : Constant
Bit rate : 1 536 kb/s
Channel(s) : 2 channels
Channel layout : L R
Sampling rate : 48.0 kHz
Bit depth : 16 bits
Stream size : 5.50 MiB (8%)
Source stream size : 5.50 MiB (8%)
Language : Japanese
Encoded date : UTC 2019-10-06 13:49:06


1 Depth of field test f/1.4 to F/16 OLYMPUS OM-D E-M10 with Canon FL 50mm f/1.4 FHD 30fps




1 Depth of field test
OLYMPUS\OM-D E-M10 FHD 30fps 
Depth of field test Canon FL 50mm f/1.4  from f/1.4  to F/16
Video Test

OLYMPUS OM-D E-M10 with Canon FL 50mm f/1.4
OLYMPUS OM-D E-M10 with Canon FL 50mm f/1.4



 f/1.4 Canon FL 50mm f/1.4
 f/1.4 Canon FL 50mm f/1.4

f/2 Canon FL 50mm f/1.4
f/2 Canon FL 50mm f/1.4

f/2.8 Canon FL 50mm f/1.4
f/2.8 Canon FL 50mm f/1.4

f/4 Canon FL 50mm f/1.4
f/4 Canon FL 50mm f/1.4

 f/5.6 Canon FL 50mm f/1.4
 f/5.6 Canon FL 50mm f/1.4

 f/8 Canon FL 50mm f/1.4
 f/8 Canon FL 50mm f/1.4

f/11 Canon FL 50mm f/1.4
f/11Canon FL 50mm f/1.4

 f/16 Canon FL 50mm f/1.4
 f/16 Canon FL 50mm f/1.4

Complete name : OLYMPUS\OM-D E-M10\video\PA060075.MOV
Format : MPEG-4
Format profile : QuickTime
Codec ID : qt 2011.07 (qt )
File size : 39.7 MiB
Duration : 27 s 528 ms
Overall bit rate : 12.1 Mb/s
Encoded date : UTC 2019-10-06 13:51:14
Tagged date : UTC 2019-10-06 13:51:14
TAGS : 8"R

Video
ID : 1
Format : AVC
Format/Info : Advanced Video Codec
Format profile : High@L4.1
Format settings : 2 Ref Frames
Format settings, CABAC : No
Format settings, Reference frames : 2 frames
Format settings, GOP : M=3, N=8
Codec ID : avc1
Codec ID/Info : Advanced Video Coding
Duration : 27 s 528 ms
Bit rate : 10.3 Mb/s
Width : 1 920 pixels
Height : 1 080 pixels
Display aspect ratio : 16:9
Frame rate mode : Constant
Frame rate : 29.970 (30000/1001) FPS
Color space : YUV
Chroma subsampling : 4:2:0
Bit depth : 8 bits
Scan type : Progressive
Bits/(Pixel*Frame) : 0.166
Stream size : 33.8 MiB (85%)
Language : Japanese
Encoded date : UTC 2019-10-06 13:51:14
Tagged date : UTC 2019-10-06 13:51:14
Color range : Full
Color primaries : BT.601 NTSC
Transfer characteristics : BT.601
Matrix coefficients : BT.601
Menus : 0
Codec configuration box : avcC

Audio
ID : 2
Format : PCM
Format settings : Little / Signed
Codec ID : sowt
Duration : 27 s 528 ms
Source duration : 27 s 560 ms
Bit rate mode : Constant
Bit rate : 1 536 kb/s
Channel(s) : 2 channels
Channel layout : L R
Sampling rate : 48.0 kHz
Bit depth : 16 bits
Stream size : 5.04 MiB (13%)
Source stream size : 5.05 MiB (13%)
Language : Japanese
Encoded date : UTC 2019-10-06 13:51:14

Sunset : Xiaomi Yi M1 with Canon FL 50mm f/1.4 FD adapted M4/3 4k




Sunset Larissa Greece
Camera : Xiaomi Yi M1 mirrorless Sony IMX269
Lens : Canon FL 50mm f/1.4 @ 1,7
Mode : A ISO 100 EV 0,0
Video Stabilization ON Video 3840x2160 @ 30fps
FD adapted MFT
Yi M1 FD adapted

Complete name : DCIM\103YICAM\PB040317.MP4
Format : MPEG-4
Format profile : Base Media / Version 2
Codec ID : mp42 (mp42/avc1)
File size : 738 MiB
Duration : 1 min 31 s
Overall bit rate mode : Variable
Overall bit rate : 68.0 Mb/s
Encoded date : UTC 2019-11-04 17:51:47
Tagged date : UTC 2019-11-04 17:51:47

Video
ID : 1
Format : AVC
Format/Info : Advanced Video Codec
Format profile : High@L5.1
Format settings : 1 Ref Frames
Format settings, CABAC : No
Format settings, Reference frames : 1 frame
Format settings, GOP : M=1, N=15
Codec ID : avc1
Codec ID/Info : Advanced Video Coding
Duration : 1 min 31 s
Bit rate : 67.8 Mb/s
Width : 3 840 pixels
Height : 2 160 pixels
Display aspect ratio : 16:9
Frame rate mode : Constant
Frame rate : 29.970 (30000/1001) FPS
Color space : YUV
Chroma subsampling : 4:2:0
Bit depth : 8 bits
Scan type : Progressive
Bits/(Pixel*Frame) : 0.273
Stream size : 737 MiB (100%)
Language : English
Encoded date : UTC 2019-11-04 17:51:47
Tagged date : UTC 2019-11-04 17:51:47
Color range : Full
Color primaries : BT.601 NTSC
Transfer characteristics : BT.709
Matrix coefficients : BT.601
Menus : 3
Codec configuration box : avcC

Audio
ID : 2
Format : AAC LC
Format/Info : Advanced Audio Codec Low Complexity
Codec ID : mp4a-40-2
Duration : 1 min 31 s
Source duration : 1 min 31 s
Bit rate mode : Variable
Bit rate : 128 kb/s
Maximum bit rate : 192 kb/s
Channel(s) : 2 channels
Channel layout : L R
Sampling rate : 48.0 kHz
Frame rate : 46.875 FPS (1024 SPF)
Compression mode : Lossy
Stream size : 1.38 MiB (0%)
Source stream size : 1.38 MiB (0%)
Language : English
Encoded date : UTC 2019-11-04 17:51:47


Δυο νύχτες Γιώτα Νέγκα 5 Φεστιβάλ Πηνειού 2019 - Lumix DMC-GX80 4k UHD Canon FL 50mm f/1.4



Δυο νύχτες ανταμώσανε
πάνω στα δάκρυά μου
Η νύχτα που σε γνώρισα
κι η νύχτα που χωρίσαμε
Και κλαιν' τα όνειρά μου
Θα πνίξουν την καρδιά μου
Χωρίς την αγάπη σου θα ήμουνα μόνος
η πίκρα θα μ έπνιγε το δάκρυ ο πόνος
εσύ με οδήγησες στη γη στην ελπίδα
του κόσμου το νόημα στα μάτια σου είδα
Αλίμονο σ αυτούς που δεν αγάπησαν
αλίμονο, αλίμονο, αλίμονο
αλίμονο σ αυτούς που δε δακρύσανε ζωή
την ομορφιά σου δε γνωρίσανε ζωή
την ομορφιά σου δε γνωρίσανε

Κάπου νυχτώνει Γιώτα Νέγκα 4 :Φεστιβάλ Πηνειού 2019 - DMC-GX80 4k UHD Canon FL 50mm f/1.4




Κάπου νυχτώνει
Φεστιβάλ Πηνειού 2019 video 4
Γιώτα Νέγκα
Panasonic Lumix DMC-GX80
4k UHD
Canon FL 50mm f/1.4 @ 1.8

Γύρνα τις ώρες που χάθηκαν απόψε
κοίτα που φεύγεις πώς κλαίει το δειλινό

Κάπου νυχτώνει κι ο ήλιος παγώνει
χάνεται ο δρόμος και πού να σταθώ
κάπου βραδιάζει μην κλαις δεν πειράζει
πες πως τελειώνει ο κόσμος εδώ

Αγέρας παίρνει απόψε τη ζωή μου
κλείνω τα μάτια που φεύγεις να μη δω

Κάπου νυχτώνει κι ο ήλιος παγώνει
χάνεται ο δρόμος και πού να σταθώ
κάπου βραδιάζει μην κλαις δεν πειράζει
πες πως τελειώνει ο κόσμος εδώ

Θα κλείσω τα μάτια Γιώτα Νέγκα 6 Φεστιβάλ Πηνειού 2019 - : Panasonic Lumix DMC-GX80 4k UHD Canon FL 50mm f/1.4




Φεστιβάλ Πηνειού 2019 video 6
Γιώτα Νέγκα
Panasonic Lumix DMC-GX80
4k UHD
Canon FL 50mm f/1.4 @ 1.8



Σε πότισα το πιο γλυκό μου δάκρυ
με πότισες τον πιο γλυκό καημό
σε άγγιξα στου ονείρου μου την άκρη
και στράγγιξα τον πρώτο στεναγμό

Θα κλείσω τα μάτια θ’ απλώσεις τα χέρια
να βρουν να φωλιάσουν λευκά περιστέρια
αγάπη μου πρώτη αγάπη μεγάλη
θα κλείσω τα μάτια κι όπου με βγάλει

Λαχτάρησα ζωή απ’ τη ζωή σου
λαχτάρησες το φως του αυγερινού
στα σύννεφα περπάτησα μαζί σου
κι ανοίξανε οι πόρτες τ’ ουρανού

Θα κλείσω τα μάτια θ’ απλώσεις τα χέρια
να βρουν να φωλιάσουν λευκά περιστέρια
αγάπη μου πρώτη αγάπη μεγάλη
θα κλείσω τα μάτια κι όπου με βγάλει

"ΚΟΙΤΑ ΜΕ ΣΤΑ ΜΑΤΙΑ" Γιώτα Νέγκα Φεστιβάλ Πηνειού 2019 - : Lumix DMC-GX80 4k UHD Canon FL 50mm f/1.4


Φεστιβάλ Πηνειού 2019 video 2
ΚΟΙΤΑ ΜΕ ΣΤΑ ΜΑΤΙΑ Γιώτα Νέγκα
Panasonic Lumix DMC-GX80
4k UHD
Canon FL 50mm f/1.4 @ 1.8


Όταν σε κοιτώ στα μάτια
δεν μπορείς να μου κρυφτείς
Κάτι σ’ έκανε να κλάψεις
και να πικραθείς

Για κοίτα με στα μάτια λοιπόν
κι εξηγήσου
Που είναι το ζεστό το γλυκό
το φιλί σου
Δεν είχες μυστικά από μένα θυμήσου
Για κοίτα με στα μάτια λοιπόν

Όταν σε κοιτώ στα μάτια
μη τα ρίχνεις χαμηλά
Βάζω μέσα στο μυαλό μου
πράγματα τρελά

Για κοίτα με στα μάτια λοιπόν
κι εξηγήσου
Που είναι το ζεστό το γλυκό
το φιλί σου
Δεν είχες μυστικά από μένα θυμήσου
Για κοίτα με στα μάτια λοιπόν

"ΡΟΖΑ" - Γιώτα Νέγκα 1 Φεστιβάλ Πηνειού 2019 : Panasonic Lumix DMC-GX80 4k UHD Canon FL 50mm f/1.4



Φεστιβάλ Πηνειού 2019 video 1
Γιώτα Νέγκα
Panasonic Lumix DMC-GX80
4k UHD
Canon FL 50mm f/1.4 @ 1.8

Τα χείλη μου ξερά και διψασμένα
γυρεύουνε στην άσφαλτο νερό
περνάνε δίπλα μου τα τροχοφόρα
και συ μου λες μας περιμένει μπόρα
και με τραβάς σε καμπαρέ υγρό
Βαδίζουμε μαζί στον ίδιο δρόμο
μα τα κελιά μας είναι χωριστά
σε πολιτεία μαγική γυρνάμε
δε θέλω πια να μάθω τι ζητάμε
φτάνει να μου χαρίσεις δυο φιλιά
Με παίζεις στη ρουλέτα και με χάνεις
σε ένα παραμύθι εφιαλτικό
φωνή εντόμου τώρα ειν' η φωνή μου
φυτό αναρριχώμενο η ζωή μου
με κόβεις και με ρίχνεις στο κενό
Πώς η ανάγκη γίνεται ιστορία
πώς η ιστορία γίνεται σιωπή
τι με κοιτάζεις Ρόζα μουδιασμένο
συγχώρα με που δεν καταλαβαίνω
τι λένε τα κομπιούτερς κι οι αριθμοί
Αγάπη μου από κάρβουνο και θειάφι
πώς σ' έχει αλλάξει έτσι ο καιρός
περνάνε πάνω μας τα τροχοφόρα
και γω μέσ' στην ομίχλη και τη μπόρα
κοιμάμαι στο πλευρό σου νηστικός
Πώς η ανάγκη γίνεται ιστορία
πώς η ιστορία γίνεται σιωπή
τι με κοιτάζεις Ρόζα μουδιασμένο
συγχώρα με που δεν καταλαβαίνω
τι λένε τα κομπιούτερς κι οι αριθμοί

Clouds 2 : Panasonic Lumix DMC-GX80 4k UHD Canon FL 50mm f/1.4



Clouds
Panasonic Lumix DMC-GX80 4k UHD 25fps   94.1 Mb/s
Canon FL 50mm f/1.4 @f/1.4
Video Test 006

Complete name : DCIM\108_PANA\P1080667.MP4
Format : MPEG-4
Format profile : Base Media / Version 2
Codec ID : mp42 (mp42/avc1)
File size : 1.47 GiB
Duration : 2 min 14 s
Overall bit rate mode : Variable
Overall bit rate : 94.1 Mb/s
Encoded date : UTC 2019-05-06 15:36:26
Tagged date : UTC 2019-05-06 15:36:26
PANA : Ê

Video
ID : 1
Format : AVC
Format/Info : Advanced Video Codec
Format profile : High@L5.1
Format settings : CABAC / 2 Ref Frames
Format settings, CABAC : Yes
Format settings, Reference frames : 2 frames
Codec ID : avc1
Codec ID/Info : Advanced Video Coding
Duration : 2 min 14 s
Bit rate mode : Variable
Bit rate : 94.0 Mb/s
Maximum bit rate : 106 Mb/s
Width : 3 840 pixels
Height : 2 160 pixels
Display aspect ratio : 16:9
Frame rate mode : Constant
Frame rate : 25.000 FPS
Color space : YUV
Chroma subsampling : 4:2:0
Bit depth : 8 bits
Scan type : Progressive
Bits/(Pixel*Frame) : 0.453
Stream size : 1.47 GiB (100%)
Encoded date : UTC 2019-05-06 15:36:26
Tagged date : UTC 2019-05-06 15:36:26
Color range : Limited
Color primaries : BT.709
Transfer characteristics : BT.709
Matrix coefficients : BT.709
Codec configuration box : avcC

Audio
ID : 2
Format : AAC LC
Format/Info : Advanced Audio Codec Low Complexity
Codec ID : mp4a-40-2
Duration : 2 min 14 s
Source duration : 2 min 14 s
Bit rate mode : Constant
Bit rate : 128 kb/s
Channel(s) : 2 channels
Channel layout : L R
Sampling rate : 48.0 kHz
Frame rate : 46.875 FPS (1024 SPF)
Compression mode : Lossy
Stream size : 2.01 MiB (0%)
Source stream size : 2.01 MiB (0%)
Encoded date : UTC 2019-05-06 15:36:26

Clouds 1 : Panasonic Lumix DMC-GX80 4k UHD Canon FL 50mm f/1.4




Clouds
Panasonic Lumix DMC-GX80 4k UHD 25fps   93.8 Mb/s
Canon FL 50mm f/1.4 @f/1.4
Video Test 005

Complete name : DCIM\108_PANA\P1080666.MP4
Format : MPEG-4
Format profile : Base Media / Version 2
Codec ID : mp42 (mp42/avc1)
File size : 682 MiB
Duration : 1 min 0 s
Overall bit rate mode : Variable
Overall bit rate : 93.8 Mb/s
Encoded date : UTC 2019-05-06 15:34:42
Tagged date : UTC 2019-05-06 15:34:42
PANA : Ê

Video
ID : 1
Format : AVC
Format/Info : Advanced Video Codec
Format profile : High@L5.1
Format settings : CABAC / 2 Ref Frames
Format settings, CABAC : Yes
Format settings, Reference frames : 2 frames
Codec ID : avc1
Codec ID/Info : Advanced Video Coding
Duration : 1 min 0 s
Bit rate mode : Variable
Bit rate : 93.7 Mb/s
Maximum bit rate : 106 Mb/s
Width : 3 840 pixels
Height : 2 160 pixels
Display aspect ratio : 16:9
Frame rate mode : Constant
Frame rate : 25.000 FPS
Color space : YUV
Chroma subsampling : 4:2:0
Bit depth : 8 bits
Scan type : Progressive
Bits/(Pixel*Frame) : 0.452
Stream size : 681 MiB (100%)
Encoded date : UTC 2019-05-06 15:34:42
Tagged date : UTC 2019-05-06 15:34:42
Color range : Limited
Color primaries : BT.709
Transfer characteristics : BT.709
Matrix coefficients : BT.709
Codec configuration box : avcC

Audio
ID : 2
Format : AAC LC
Format/Info : Advanced Audio Codec Low Complexity
Codec ID : mp4a-40-2
Duration : 1 min 0 s
Source duration : 1 min 1 s
Bit rate mode : Constant
Bit rate : 128 kb/s
Channel(s) : 2 channels
Channel layout : L R
Sampling rate : 48.0 kHz
Frame rate : 46.875 FPS (1024 SPF)
Compression mode : Lossy
Stream size : 932 KiB (0%)
Source stream size : 933 KiB (0%)
Encoded date : UTC 2019-05-06 15:34:42

Flowers 4: Panasonic Lumix DMC-GX80 4k UHD Canon FL 50mm f/1.4




Flowers
Panasonic Lumix DMC-GX80 4k UHD 25fps   94.2 Mb/s
Canon FL 50mm f/1.4 @f/1.4
Video Test 004

Complete name : DCIM\108_PANA\P1080621.MP4
Format : MPEG-4
Format profile : Base Media / Version 2
Codec ID : mp42 (mp42/avc1)
File size : 687 MiB
Duration : 1 min 1 s
Overall bit rate mode : Variable
Overall bit rate : 93.7 Mb/s
Encoded date : UTC 2019-05-05 18:03:34
Tagged date : UTC 2019-05-05 18:03:34
PANA : Ê

Video
ID : 1
Format : AVC
Format/Info : Advanced Video Codec
Format profile : High@L5.1
Format settings : CABAC / 2 Ref Frames
Format settings, CABAC : Yes
Format settings, RefFrames : 2 frames
Codec ID : avc1
Codec ID/Info : Advanced Video Coding
Duration : 1 min 1 s
Bit rate mode : Variable
Bit rate : 93.6 Mb/s
Maximum bit rate : 106 Mb/s
Width : 3 840 pixels
Height : 2 160 pixels
Display aspect ratio : 16:9
Frame rate mode : Constant
Frame rate : 25.000 FPS
Color space : YUV
Chroma subsampling : 4:2:0
Bit depth : 8 bits
Scan type : Progressive
Bits/(Pixel*Frame) : 0.451
Stream size : 685 MiB (100%)
Encoded date : UTC 2019-05-05 18:03:34
Tagged date : UTC 2019-05-05 18:03:34
Color range : Limited
Color primaries : BT.709
Transfer characteristics : BT.709
Matrix coefficients : BT.709
Codec configuration box : avcC

Audio
ID : 2
Format : AAC LC
Format/Info : Advanced Audio Codec Low Complexity
Codec ID : mp4a-40-2
Duration : 1 min 1 s
Source duration : 1 min 1 s
Bit rate mode : Constant
Bit rate : 128 kb/s
Channel(s) : 2 channels
Channel layout : L R
Sampling rate : 48.0 kHz
Frame rate : 46.875 FPS (1024 SPF)
Compression mode : Lossy
Stream size : 939 KiB (0%)
Source stream size : 940 KiB (0%)
Encoded date : UTC 2019-05-05 18:03:34

Canon FD Adapter to Canon EOS body 1200d




NOT WORKING AT INFINITY IS 50 CM MAXIMUM

Adaptor NOT WORKING to Canon 1200d EOS body
* Infinity at 50cm with Canon FL 50mm f/1.4
glass is needed to focus to INFINITY

FD-EOS adattatore di montaggio non anello vetro per obiettivo Canon FD EOS EF

Popular Posts