Showing posts with label Canon FD to pentax PQ. Show all posts
Showing posts with label Canon FD to pentax PQ. Show all posts

Moon : Pentax Q Video test with Vivitar-55MM 1:2.8 MC MACRO Ø62 FD to Pq Night



Moon with Vivitar-55MM 1:2.8 MC MACRO Camera : Pentax Q 12.4 Mp 1/2.3-inch CMOS Crop factor 5.62 Lens : Vivitar-55MM 1:2.8 MC MACRO Ø62 FD @ f/2.8 310mm equivalent 35mm Mode : M Shutter 1/250 ISO 125 EV 0,0 Video Stabilization OFF Video 1920x1080 @ 30fps Don’t forget to click the bell to turn on post notifications! Nikolaos Instagram: https://www.instagram.com/sakellarisnikolaos/ Twitter: https://twitter.com/SakellarisNiko Facebook: https://www.facebook.com/nikolaos.sakellaris/ Blog: https://video-photo-blog.blogspot.com/ Complete name : DCIM\133_1402\IMGP8700.MOV Format : MPEG-4 Format profile : QuickTime Codec ID : qt 2007.09 (qt /####) File size : 82.8 MiB Duration : 2 min 42 s Overall bit rate mode : Variable Overall bit rate : 4 273 kb/s thmb : AX Video ID : 1 Format : AVC Format/Info : Advanced Video Codec Format profile : Main@L4 Format settings : CABAC / 2 Ref Frames Format settings, CABAC : Yes Format settings, RefFrames : 2 frames Codec ID : avc1 Codec ID/Info : Advanced Video Coding Duration : 2 min 42 s Source duration : 2 min 42 s Bit rate mode : Variable Bit rate : 2 727 kb/s Maximum bit rate : 20.0 Mb/s Width : 1 920 pixels Height : 1 080 pixels Display aspect ratio : 16:9 Frame rate mode : Constant Frame rate : 29.970 (30000/1001) FPS Color space : YUV Chroma subsampling : 4:2:0 Bit depth : 8 bits Scan type : Progressive Bits/(Pixel*Frame) : 0.044 Stream size : 52.8 MiB (64%) Source stream size : 52.8 MiB (64%) Language : English mdhd_Duration : 162560 Codec configuration box : avcC Audio ID : 2 Format : PCM Format settings : Little / Signed Codec ID : sowt Duration : 2 min 42 s Bit rate mode : Constant Bit rate : 1 536 kb/s Channel(s) : 2 channels Channel layout : L R Sampling rate : 48.0 kHz Bit depth : 16 bits Stream size : 29.8 MiB (36%) Language : English

Genova città deserta Seconda parte rimaniamo a casa Μένουμε Σπίτι και εμείς

rimaniamo a casa Seconda parte Genova città deserta #StayHome Γένοβα δεύτερο μέρος Μένουμε Σπίτι και εμείς 2nd Part desert Genoa Geno...