Showing posts with label PHOTAX f/8 500mm f72. Show all posts
Showing posts with label PHOTAX f/8 500mm f72. Show all posts

Full Moon : Lumix DMC-GX80 + PHOTAX f/8 500mm f72 (mod) + SIGMA TELEMAC VARIO 2X-3X UHD 25fps




Full Moon 13/OCT/2019
Camera : Panasonic Lumix DMC-GX80
Lens: PHOTAX f/8 500mm f72 T2 - @ f/16 T2 modified removed internal group the two elements it seems to be 400mm
Teleconverter : SIGMA TELEMAC VARIO 2X 2.5X 3X  m42
video test 4k UHD  3 840 x 2 160  25fps
PHOTAX 500mm f/8
1:8 f= 500mm


Complete name :DCIM\110_PANA\P1100383.MP4
Format : MPEG-4
Format profile : Base Media / Version 2
Codec ID : mp42 (mp42/avc1)
File size : 1.48 GiB
Duration : 3 min 17 s
Overall bit rate mode : Variable
Overall bit rate : 64.4 Mb/s
Encoded date : UTC 2019-10-13 02:32:16
PANA : Ê

Video
ID : 1
Format : AVC
Format/Info : Advanced Video Codec
Format profile : High@L5.1
Format settings : CABAC / 2 Ref Frames
Format settings, CABAC : Yes
Format settings, Reference frames : 2 frames
Codec ID : avc1
Codec ID/Info : Advanced Video Coding
Duration : 3 min 17 s
Bit rate mode : Variable
Bit rate : 64.3 Mb/s
Maximum bit rate : 106 Mb/s
Width : 3 840 pixels
Height : 2 160 pixels
Display aspect ratio : 16:9
Frame rate mode : Constant
Frame rate : 25.000 FPS
Color space : YUV
Chroma subsampling : 4:2:0
Bit depth : 8 bits
Scan type : Progressive
Bits/(Pixel*Frame) : 0.310
Stream size : 1.48 GiB (100%)
Encoded date : UTC 2019-10-13 02:32:16
Color range : Limited
Color primaries : BT.709
Transfer characteristics : BT.709
Matrix coefficients : BT.709
Codec configuration box : avcC

Audio
ID : 2
Format : AAC LC
Format/Info : Advanced Audio Codec Low Complexity
Codec ID : mp4a-40-2
Duration : 3 min 17 s
Source duration : 3 min 17 s
Bit rate mode : Constant
Bit rate : 128 kb/s
Channel(s) : 2 channels
Channel layout : L R
Sampling rate : 48.0 kHz
Frame rate : 46.875 FPS (1024 SPF)
Compression mode : Lossy
Stream size : 2.95 MiB (0%)
Source stream size : 2.96 MiB (0%)
Encoded date : UTC 2019-10-13 02:32:16

Full Moon : Panasonic Lumix DMC-GX80 + PHOTAX f/8 500mm f72 (mod) 4k UHD 25fps




Full Moon 13/OCT/2019
Camera : Panasonic Lumix DMC-GX80
Lens: PHOTAX f/8 500mm f72 T2 - @ f/16 T2 modified removed internal group the two elements it seems to be 400mm
video test 4k UHD  3840 x 2160 25fps
PHOTAX 500mm f/8
1:8 f= 500mm

Moon : Samsung NX20 + PHOTAX f/8 500mm f72 (mod) + SIGMA TELEMAC VARIO 2X-3X FHD 810 24fps



Moon 13/OCT/2019
Camera : Samsung NX20
Lens: PHOTAX f/8 500mm f72 T2 - @ f/16 T2 modified removed internal group the two elements it seems to be 400mm
Teleconverter : SIGMA TELEMAC VARIO 2X 2.5X 3X  m42
PHOTAX 500mm f/8 video test FHD 810 24fps
1:8 f= 500mm


Complete name :DCIM\104PHOTO\SAM_4347.MP4
Format : MPEG-4
Format profile : Base Media / Version 2
Codec ID : mp42 (mp42/isom/avc1)
File size : 170 MiB
Duration : 4 min 7 s
Overall bit rate : 5 764 kb/s

Video
ID : 1
Format : AVC
Format/Info : Advanced Video Codec
Format profile : High@L4.1
Format settings : 2 Ref Frames
Format settings, CABAC : No
Format settings, RefFrames : 2 frames
Format settings, GOP : M=1, N=24
Codec ID : avc1
Codec ID/Info : Advanced Video Coding
Duration : 4 min 7 s
Bit rate : 5 633 kb/s
Width : 1 920 pixels
Height : 810 pixels
Display aspect ratio : 2.40:1
Frame rate mode : Constant
Frame rate : 24.000 FPS
Color space : YUV
Chroma subsampling : 4:2:0
Bit depth : 8 bits
Scan type : Progressive
Bits/(Pixel*Frame) : 0.151
Stream size : 166 MiB (98%)
Language : English
Codec configuration box : avcC

Audio
ID : 2
Format : AAC LC
Format/Info : Advanced Audio Codec Low Complexity
Codec ID : mp4a-40-2
Duration : 4 min 7 s
Bit rate mode : Constant
Bit rate : 128 kb/s
Channel(s) : 2 channels
Channel layout : L R
Sampling rate : 32.0 kHz
Frame rate : 31.250 FPS (1024 SPF)
Compression mode : Lossy
Stream size : 3.74 MiB (2%)
Language : English

Moon : Samsung NX20 + PHOTAX f/8 500mm f72 (mod) FHD 810 24fps



Moon 13/OCT/2019
Camera : Samsung NX20
Lens: PHOTAX f/8 500mm f72 T2 - @ f/16 T2 modified removed internal group the two elements it seems to be 400mm
video test FHD 810 24fps
1:8 f= 500mm


Complete name : IDCIM\104PHOTO\SAM_4345.MP4
Format : MPEG-4
Format profile : Base Media / Version 2
Codec ID : mp42 (mp42/isom/avc1)
File size : 187 MiB
Duration : 5 min 8 s
Overall bit rate : 5 090 kb/s

Video
ID : 1
Format : AVC
Format/Info : Advanced Video Codec
Format profile : High@L4.1
Format settings : 2 Ref Frames
Format settings, CABAC : No
Format settings, RefFrames : 2 frames
Format settings, GOP : M=1, N=24
Codec ID : avc1
Codec ID/Info : Advanced Video Coding
Duration : 5 min 8 s
Bit rate : 4 956 kb/s
Width : 1 920 pixels
Height : 810 pixels
Display aspect ratio : 2.40:1
Frame rate mode : Constant
Frame rate : 24.000 FPS
Color space : YUV
Chroma subsampling : 4:2:0
Bit depth : 8 bits
Scan type : Progressive
Bits/(Pixel*Frame) : 0.133
Stream size : 182 MiB (97%)
Language : English
Codec configuration box : avcC

Audio
ID : 2
Format : AAC LC
Format/Info : Advanced Audio Codec Low Complexity
Codec ID : mp4a-40-2
Duration : 5 min 8 s
Bit rate mode : Constant
Bit rate : 128 kb/s
Channel(s) : 2 channels
Channel layout : L R
Sampling rate : 32.0 kHz
Frame rate : 31.250 FPS (1024 SPF)
Compression mode : Lossy
Stream size : 4.65 MiB (2%)
Language : English

Moon : Sony SLT-A33 + PHOTAX f/8 500mm f72 (mod) + SIGMA TELEMAC VARIO 2X-3X FHD 1080 25fps



Moon 11/OCT/2019
Camera : Sony SLT-A33
Lens: PHOTAX f/8 500mm f72 T2 - @ f/11 T2 modified removed internal group the two elements it seems to be 400mm
Teleconverter : SIGMA TELEMAC VARIO 2X 2.5X 3X  m42
SLT-A33 video test FHD 1080 25fps
1:8 f= 500mm


Complete name : STREAM\00229.MTS
Format : BDAV
Format/Info : Blu-ray Video
File size : 251 MiB
Duration : 2 min 3 s
Overall bit rate mode : Variable
Overall bit rate : 17.1 Mb/s
Maximum Overall bit rate : 18.0 Mb/s
Recorded date : 2019-10-12 01:08:47+02:00
Writing application : Sony SLT-A33

Video
ID : 4113 (0x1011)
Menu ID : 1 (0x1)
Format : AVC
Format/Info : Advanced Video Codec
Format profile : High@L4
Format settings : CABAC / 2 Ref Frames
Format settings, CABAC : Yes
Format settings, Reference frames : 2 frames
Format settings, GOP : M=2, N=13
Codec ID : 27
Duration : 2 min 3 s
Bit rate mode : Variable
Bit rate : 16.0 Mb/s
Width : 1 920 pixels
Height : 1 080 pixels
Display aspect ratio : 16:9
Frame rate : 25.000 FPS
Color space : YUV
Chroma subsampling : 4:2:0
Bit depth : 8 bits
Scan type : Interlaced
Scan type, store method : Separated fields
Scan order : Top Field First
Bits/(Pixel*Frame) : 0.309
Stream size : 237 MiB (94%)
IrisFNumber : 1.000000

Audio
ID : 4352 (0x1100)
Menu ID : 1 (0x1)
Format : AC-3
Format/Info : Audio Coding 3
Commercial name : Dolby Digital
Codec ID : 129
Duration : 2 min 3 s
Bit rate mode : Constant
Bit rate : 256 kb/s
Channel(s) : 2 channels
Channel layout : L R
Sampling rate : 48.0 kHz
Frame rate : 31.250 FPS (1536 SPF)
Compression mode : Lossy
Delay relative to video : -80 ms
Stream size : 3.76 MiB (1%)
Service kind : Complete Main

Text
ID : 4608 (0x1200)
Menu ID : 1 (0x1)
Format : PGS
Codec ID : 144
Duration : 2 min 2 s
Delay relative to video : -80 ms

Moon : Sony SLT-A33 + PHOTAX f/8 500mm f72 (mod) FHD 1080 25fps



Moon 12/OCT/2019
Camera : Sony SLT-A33
Lens: PHOTAX f/8 500mm f72 T2 - @ f/11 T2 modified removed internal group the two elements it seems to be 400mm
video test FHD 1080 25fps
1:8 f= 500mm


Complete name : STREAM\00225.MTS
Format : BDAV
Format/Info : Blu-ray Video
File size : 243 MiB
Duration : 1 min 59 s
Overall bit rate mode : Variable
Overall bit rate : 17.0 Mb/s
Maximum Overall bit rate : 18.0 Mb/s
Recorded date : 2019-10-12 00:58:05+02:00
Writing application : Sony SLT-A33

Video
ID : 4113 (0x1011)
Menu ID : 1 (0x1)
Format : AVC
Format/Info : Advanced Video Codec
Format profile : High@L4
Format settings : CABAC / 2 Ref Frames
Format settings, CABAC : Yes
Format settings, Reference frames : 2 frames
Format settings, GOP : M=2, N=13
Codec ID : 27
Duration : 1 min 59 s
Bit rate mode : Variable
Bit rate : 16.0 Mb/s
Width : 1 920 pixels
Height : 1 080 pixels
Display aspect ratio : 16:9
Frame rate : 25.000 FPS
Color space : YUV
Chroma subsampling : 4:2:0
Bit depth : 8 bits
Scan type : Interlaced
Scan type, store method : Separated fields
Scan order : Top Field First
Bits/(Pixel*Frame) : 0.309
Stream size : 229 MiB (94%)
IrisFNumber : 1.000000

Audio
ID : 4352 (0x1100)
Menu ID : 1 (0x1)
Format : AC-3
Format/Info : Audio Coding 3
Commercial name : Dolby Digital
Codec ID : 129
Duration : 1 min 59 s
Bit rate mode : Constant
Bit rate : 256 kb/s
Channel(s) : 2 channels
Channel layout : L R
Sampling rate : 48.0 kHz
Frame rate : 31.250 FPS (1536 SPF)
Compression mode : Lossy
Delay relative to video : -80 ms
Stream size : 3.65 MiB (2%)
Service kind : Complete Main

Text
ID : 4608 (0x1200)
Menu ID : 1 (0x1)
Format : PGS
Codec ID : 144
Duration : 1 min 59 s
Delay relative to video : -80 ms

Genova città deserta Seconda parte rimaniamo a casa Μένουμε Σπίτι και εμείς

rimaniamo a casa Seconda parte Genova città deserta #StayHome Γένοβα δεύτερο μέρος Μένουμε Σπίτι και εμείς 2nd Part desert Genoa Geno...