Showing posts with label Genova. Show all posts
Showing posts with label Genova. Show all posts

Genova città deserta Seconda parte rimaniamo a casa Μένουμε Σπίτι και εμείς



rimaniamo a casa Seconda parte Genova città deserta #StayHome
Γένοβα δεύτερο μέρος Μένουμε Σπίτι και εμείς 
2nd Part desert Genoa
Genova deserta
4k upgrade from FHD 1080
genoa desert city

Don’t forget to click the bell to turn on post notifications!

Nikolaos Instagram: https://www.instagram.com/sakellarisnikolaos/
Twitter: https://twitter.com/SakellarisNiko
Facebook: https://www.facebook.com/nikolaos.sakellaris/
Blog: https://video-photo-blog.blogspot.com/


Genova città deserta Prima parte rimaniamo a casa Μένουμε Σπίτι και εμείς



rimaniamo a casa Prima parte Genova città deserta #StayHome
Γένοβα πρώτο μέρος Μένουμε Σπίτι και εμείς 
1st Part desert Genoa
Genova deserta
4k upgrade from FHD 1080
genova city italy  4k
genoa desert city

Don’t forget to click the bell to turn on post notifications!

Nikolaos Instagram: https://www.instagram.com/sakellarisnikolaos/
Twitter: https://twitter.com/SakellarisNiko
Facebook: https://www.facebook.com/nikolaos.sakellaris/
Blog: https://video-photo-blog.blogspot.com/

I


Βόλτα στη Γένοβα 480p 05/08/2019 δεύτερο μέρος 2nd Part Ride to Genoa In giro per Genova



Βόλτα στη Γένοβα
δεύτερο μέρος 2nd Part
Ride to Genoa
In giro per Genova
Width : 848 pixels  Height : 480 pixels
Fake 4k actioncam only FHD 1080

Complete name : MOVI00199.avi
Format : AVI
Format/Info : Audio Video Interleave
Format profile : OpenDML 

Βόλτα στη Γένοβα 480p 05/08/2019 πρώτο μέρος 1st Part Ride to Genoa In giro per Genova



Βόλτα στη Γένοβα
πρώτο μέρος 1st Part
Ride to Genoa
In giro per Genova
Fake 4k actioncam only FHD 1080

Complete name : MOVI00166 .avi
Format : AVI
Format/Info : Audio Video Interleave
File size : 976 MiB
Duration : 8 min 39 s
Overall bit rate : 15.8 Mb/s
Writing application : Bandicut 3.1.5.509 / Cutter / HS

Video
ID : 0
Format : JPEG
Codec ID : MJPG
Duration : 8 min 39 s
Bit rate : 15.2 Mb/s
Width : 848 pixels
Height : 480 pixels
Display aspect ratio : 16:9
Frame rate : 30.000 FPS
Color space : YUV
Chroma subsampling : 4:2:0
Bit depth : 8 bits
Compression mode : Lossy
Bits/(Pixel*Frame) : 1.247
Stream size : 944 MiB (97%)

Audio
ID : 1
Format : PCM
Format settings : Little / Signed
Codec ID : 1
Duration : 8 min 39 s
Bit rate mode : Constant
Bit rate : 512 kb/s
Channel(s) : 1 channel
Sampling rate : 32.0 kHz
Bit depth : 16 bits
Stream size : 31.7 MiB (3%)
Alignment : Aligned on interleaves
Interleave, duration : 31 ms (0.93 video frame)

Genova città deserta Seconda parte rimaniamo a casa Μένουμε Σπίτι και εμείς

rimaniamo a casa Seconda parte Genova città deserta #StayHome Γένοβα δεύτερο μέρος Μένουμε Σπίτι και εμείς 2nd Part desert Genoa Geno...