Showing posts with label Turbo-X ACT-200. Show all posts
Showing posts with label Turbo-X ACT-200. Show all posts

part2 Larissa Pinios river Turbo-x ACT-200 UHD 4K 30fps 14.0 Mb/s Action Cam




Larissa Pinios river under the bridge Turbo-x ACT-200 UHD 4K 30fps 14.8 Mb/s Action Cam Don’t forget to click the bell to turn on post notifications! Nikolaos Instagram: https://www.instagram.com/sakellarisnikolaos/ Twitter: https://twitter.com/SakellarisNiko Facebook: https://www.facebook.com/nikolaos.sakellaris/ Blog: https://video-photo-blog.blogspot.com/ Complete name : PHOTO\TURBO-X\act-200\video\20200210_040448A.mp4 Format : MPEG-4 Format profile : Base Media Codec ID : isom (isom/iso2/mp41) File size : 875 MiB Duration : 8 min 16 s Overall bit rate mode : Variable Overall bit rate : 14.8 Mb/s Video ID : 1 Format : AVC Format/Info : Advanced Video Codec Format profile : Main@L5.1 Format settings : CABAC / 1 Ref Frames Format settings, CABAC : Yes Format settings, Reference frames : 1 frame Codec ID : avc1 Codec ID/Info : Advanced Video Coding Duration : 8 min 16 s Source duration : 8 min 16 s Bit rate : 14.8 Mb/s Width : 3 840 pixels Height : 2 160 pixels Display aspect ratio : 16:9 Frame rate : 30.000 FPS Color space : YUV Chroma subsampling : 4:2:0 Bit depth : 8 bits Scan type : Progressive Bits/(Pixel*Frame) : 0.059 Stream size : 873 MiB (100%) Source stream size : 873 MiB (100%) Language : English Color range : Limited Color primaries : BT.601 PAL Transfer characteristics : BT.601 Matrix coefficients : BT.470 System B/G mdhd_Duration : 496328 Codec configuration box : avcC Audio ID : 2 Format : AAC LC Format/Info : Advanced Audio Codec Low Complexity Codec ID : mp4a-40-2 Duration : 8 min 16 s Source duration : 8 min 15 s Bit rate mode : Variable Channel(s) : 1 channel Channel layout : C Sampling rate : 8 000 Hz Frame rate : 7.813 FPS (1024 SPF) Compression mode : Lossy Source stream size : 1.00 MiB (0%) Language : English mdhd_Duration : 496328

part1 Larissa Frurio & Saint. Achillius Turbo-x ACT-200 UHD 4K 30fps 14.0 Mb/s Action Cam




Larissa Frurio Saint. Achillius Turbo-x ACT-200 UHD 4K 30fps 14.0 Mb/s Action Cam Don’t forget to click the bell to turn on post notifications! Nikolaos Instagram: https://www.instagram.com/sakellarisnikolaos/ Twitter: https://twitter.com/SakellarisNiko Facebook: https://www.facebook.com/nikolaos.sakellaris/ Blog: https://video-photo-blog.blogspot.com/ Complete name : PHOTO\TURBO-X\act-200\video\20200210_035723A.mp4 Format : MPEG-4 Format profile : Base Media Codec ID : isom (isom/iso2/mp41) File size : 609 MiB Duration : 6 min 1 s Overall bit rate mode : Variable Overall bit rate : 14.1 Mb/s Video ID : 1 Format : AVC Format/Info : Advanced Video Codec Format profile : Main@L5.1 Format settings : CABAC / 1 Ref Frames Format settings, CABAC : Yes Format settings, Reference frames : 1 frame Codec ID : avc1 Codec ID/Info : Advanced Video Coding Duration : 6 min 1 s Source duration : 6 min 1 s Bit rate : 14.1 Mb/s Width : 3 840 pixels Height : 2 160 pixels Display aspect ratio : 16:9 Frame rate : 30.000 FPS Color space : YUV Chroma subsampling : 4:2:0 Bit depth : 8 bits Scan type : Progressive Bits/(Pixel*Frame) : 0.057 Stream size : 607 MiB (100%) Source stream size : 607 MiB (100%) Language : English Color range : Limited Color primaries : BT.601 PAL Transfer characteristics : BT.601 Matrix coefficients : BT.470 System B/G mdhd_Duration : 361329 Codec configuration box : avcC Audio ID : 2 Format : AAC LC Format/Info : Advanced Audio Codec Low Complexity Codec ID : mp4a-40-2 Duration : 6 min 1 s Source duration : 6 min 0 s Bit rate mode : Variable Channel(s) : 1 channel Channel layout : C Sampling rate : 8 000 Hz Frame rate : 7.813 FPS (1024 SPF) Compression mode : Lossy Source stream size : 746 KiB (0%) Language : English mdhd_Duration : 361329

Turbo-x ACT-200 1280x720 30fps 10.6 Mb/s Action Cam



Format : MPEG-4
File size : 16.3 MiB
Duration : 12 s 132 ms
Overall bit rate mode : Variable
Overall bit rate : 11.3 Mb/s

Turbo-x ACT-200 1280x720 30fps

Video
ID : 1
Format : AVC
Format/Info : Advanced Video Codec
Format profile : Main@L5.1
Format settings : CABAC / 1 Ref Frames
Format settings, CABAC : Yes
Format settings, RefFrames : 1 frame
Format settings, GOP : M=1, N=30
Codec ID : avc1
Codec ID/Info : Advanced Video Coding
Duration : 12 s 132 ms
Source duration : 12 s 99 ms
Bit rate : 10.6 Mb/s
Width : 1 280 pixels
Height : 720 pixels
Display aspect ratio : 16:9
Frame rate : 30.000 FPS
Color space : YUV
Chroma subsampling : 4:2:0
Bit depth : 8 bits
Scan type : Progressive
Bits/(Pixel*Frame) : 0.382
Stream size : 15.3 MiB (94%)
Source stream size : 15.3 MiB (94%)
Language : English
Color range : Limited
Color primaries : BT.601 PAL
Transfer characteristics : BT.601
Matrix coefficients : BT.470 System B/G
mdhd_Duration : 12132
Codec configuration box : avcC

Audio
ID : 2
Format : AAC LC
Format/Info : Advanced Audio Codec Low Complexity
Codec ID : mp4a-40-2
Duration : 12 s 132 ms
Source duration : 11 s 520 ms
Bit rate mode : Variable
Channel(s) : 1 channel
Channel layout : C
Sampling rate : 8 000 Hz
Frame rate : 7.813 FPS (1024 SPF)
Compression mode : Lossy
Source stream size : 23.9 KiB (0%)
Language : English
mdhd_Duration : 12132


Turbo-X-Action-Cam-Act-200-V3A

Άγιος Νικόλαος Εκκλησία στη Λάρισα  Ηπείρου 52, 412 22
St. Nicholas Church Larissa Greece

Turbo-x ACT-200 1280x720 60fps 15.8 Mb/s Action Cam




Format : MPEG-4
File size : 23.1 MiB
Duration : 11 s 765 ms
Overall bit rate mode : Variable
Overall bit rate : 16.5 Mb/s

Turbo-x ACT-200 1280x720 60fps

Video
ID : 1
Format : AVC
Format/Info : Advanced Video Codec
Format profile : Main@L5.1
Format settings : CABAC / 1 Ref Frames
Format settings, CABAC : Yes
Format settings, RefFrames : 1 frame
Format settings, GOP : M=1, N=60
Codec ID : avc1
Codec ID/Info : Advanced Video Coding
Duration : 11 s 765 ms
Source duration : 11 s 749 ms
Bit rate : 15.8 Mb/s
Width : 1 280 pixels
Height : 720 pixels
Display aspect ratio : 16:9
Frame rate : 60.000 FPS
Color space : YUV
Chroma subsampling : 4:2:0
Bit depth : 8 bits
Scan type : Progressive
Bits/(Pixel*Frame) : 0.285
Stream size : 22.1 MiB (96%)
Source stream size : 22.1 MiB (96%)
Language : English
Color range : Limited
Color primaries : BT.601 PAL
Transfer characteristics : BT.601
Matrix coefficients : BT.470 System B/G
mdhd_Duration : 11765
Codec configuration box : avcC

Audio
ID : 2
Format : AAC LC
Format/Info : Advanced Audio Codec Low Complexity
Codec ID : mp4a-40-2
Duration : 11 s 765 ms
Source duration : 11 s 136 ms
Bit rate mode : Variable
Channel(s) : 1 channel
Channel layout : C
Sampling rate : 8 000 Hz
Frame rate : 7.813 FPS (1024 SPF)
Compression mode : Lossy
Source stream size : 23.1 KiB (0%)
Language : English
mdhd_Duration : 11765

Turbo-X-Action-Cam-Act-200-V3A
Άγιος Νικόλαος Εκκλησία στη Λάρισα  Ηπείρου 52, 412 22
St. Nicholas Church Larissa Greece

Turbo-x ACT-200 1280x720 120fps 19.1 Mb/s Action Cam



Format : MPEG-4
File size : 26.7 MiB
Duration : 11 s 265 ms
Overall bit rate mode : Variable
Overall bit rate : 19.9 Mb/s

Turbo-x ACT-200 1280x720 120fps

Video
ID : 1
Format : AVC
Format/Info : Advanced Video Codec
Format profile : Main@L5.1
Format settings : CABAC / 1 Ref Frames
Format settings, CABAC : Yes
Format settings, RefFrames : 1 frame
Codec ID : avc1
Codec ID/Info : Advanced Video Coding
Duration : 11 s 265 ms
Source duration : 11 s 257 ms
Bit rate : 19.1 Mb/s
Width : 1 280 pixels
Height : 720 pixels
Display aspect ratio : 16:9
Frame rate : 120.018 FPS
Color space : YUV
Chroma subsampling : 4:2:0
Bit depth : 8 bits
Scan type : Progressive
Bits/(Pixel*Frame) : 0.173
Stream size : 25.7 MiB (96%)
Source stream size : 25.7 MiB (96%)
Language : English
Color range : Limited
Color primaries : BT.601 PAL
Transfer characteristics : BT.601
Matrix coefficients : BT.470 System B/G
mdhd_Duration : 11265
Codec configuration box : avcC

Audio
ID : 2
Format : AAC LC
Format/Info : Advanced Audio Codec Low Complexity
Codec ID : mp4a-40-2
Duration : 11 s 265 ms
Source duration : 10 s 752 ms
Bit rate mode : Variable
Channel(s) : 1 channel
Channel layout : C
Sampling rate : 8 000 Hz
Frame rate : 7.813 FPS (1024 SPF)
Compression mode : Lossy
Source stream size : 22.1 KiB (0%)
Language : English
mdhd_Duration : 11265

Turbo-X-Action-Cam-Act-200-V3A
Άγιος Νικόλαος Εκκλησία στη Λάρισα  Ηπείρου 52, 412 22
St. Nicholas Church Larissa Greece

Turbo-x ACT-200 1920x1080 30fps FHD 15.8 Mb/s Action Cam



Format                                   : MPEG-4
File size                                : 22.3 MiB
Duration                                 : 11 s 299 ms
Overall bit rate mode                    : Variable
Overall bit rate                         : 16.6 Mb/s

Turbo-x ACT-200 1920x1080 30fps

Video
ID                                       : 1
Format                                   : AVC
Format/Info                              : Advanced Video Codec
Format profile                           : Main@L5.1
Format settings                          : CABAC / 1 Ref Frames
Format settings, CABAC                   : Yes
Format settings, RefFrames               : 1 frame
Format settings, GOP                     : M=1, N=30
Codec ID                                 : avc1
Codec ID/Info                            : Advanced Video Coding
Duration                                 : 11 s 299 ms
Source duration                          : 11 s 266 ms
Bit rate                                 : 15.8 Mb/s
Width                                    : 1 920 pixels
Height                                   : 1 080 pixels
Display aspect ratio                     : 16:9
Frame rate                               : 30.000 FPS
Color space                              : YUV
Chroma subsampling                       : 4:2:0
Bit depth                                : 8 bits
Scan type                                : Progressive
Bits/(Pixel*Frame)                       : 0.255
Stream size                              : 21.3 MiB (95%)
Source stream size                       : 21.3 MiB (95%)
Language                                 : English
Color range                              : Limited
Color primaries                          : BT.601 PAL
Transfer characteristics                 : BT.601
Matrix coefficients                      : BT.470 System B/G
mdhd_Duration                            : 11299
Codec configuration box                  : avcC

Audio
ID                                       : 2
Format                                   : AAC LC
Format/Info                              : Advanced Audio Codec Low Complexity
Codec ID                                 : mp4a-40-2
Duration                                 : 11 s 299 ms
Source duration                          : 10 s 624 ms
Bit rate mode                            : Variable
Channel(s)                               : 1 channel
Channel layout                           : C
Sampling rate                            : 8 000 Hz
Frame rate                               : 7.813 FPS (1024 SPF)
Compression mode                         : Lossy
Source stream size                       : 21.9 KiB (0%)
Language                                 : English
mdhd_Duration                            : 11299

Turbo-X-Action-Cam-Act-200-V3A
Άγιος Νικόλαος Εκκλησία στη Λάρισα  Ηπείρου 52, 412 22
St. Nicholas Church Larissa Greece

Turbo-x ACT-200 1920x1080 60fps FHD 21.6 Mb/s Action Cam



Format                                   : MPEG-4
File size                                : 29.7 MiB
Duration                                 : 11 s 132 ms
Overall bit rate mode                    : Variable
Overall bit rate                         : 22.4 Mb/s

Turbo-x ACT-200 1920x1080 60fps FHD

Video
ID                                       : 1
Format                                   : AVC
Format/Info                              : Advanced Video Codec
Format profile                           : Main@L5.1
Format settings                          : CABAC / 1 Ref Frames
Format settings, CABAC                   : Yes
Format settings, RefFrames               : 1 frame
Codec ID                                 : avc1
Codec ID/Info                            : Advanced Video Coding
Duration                                 : 11 s 132 ms
Source duration                          : 11 s 116 ms
Bit rate                                 : 21.6 Mb/s
Width                                    : 1 920 pixels
Height                                   : 1 080 pixels
Display aspect ratio                    16 : 9
Frame rate                               : 60.000 FPS
Color space                              : YUV
Chroma subsampling                       : 4:2:0
Bit depth                                : 8 bits
Scan type                                : Progressive
Bits/(Pixel*Frame)                       : 0.174
Stream size                              : 28.7 MiB (97%)
Source stream size                       : 28.7 MiB (97%)
Language                                 : English
Color range                              : Limited
Color primaries                          : BT.601 PAL
Transfer characteristics                 : BT.601
Matrix coefficients                      : BT.470 System B/G
mdhd_Duration                            : 11132
Codec configuration box                  : avcC

Audio
ID                                       : 2
Format                                   : AAC LC
Format/Info                              : Advanced Audio Codec Low Complexity
Codec ID                                 : mp4a-40-2
Duration                                 : 11 s 132 ms
Source duration                          : 10 s 496 ms
Bit rate mode                            : Variable
Channel(s)                               : 1 channel
Channel layout                           : C
Sampling rate                            : 8 000 Hz
Frame rate                               : 7.813 FPS (1024 SPF)
Compression mode                         : Lossy
Source stream size                       : 22.8 KiB (0%)
Language                                 : English
mdhd_Duration                            : 11132

Turbo-X-Action-Cam-Act-200-V3A

Άγιος Νικόλαος Εκκλησία στη Λάρισα  Ηπείρου 52, 412 22
St. Nicholas Church Larissa Greece

Turbo-x ACT-200 2.7K 30fps 19.4 Mb/s Action Cam



Format : MPEG-4
File size : 26.4 MiB
Duration : 10 s 966 ms
Overall bit rate mode : Variable
Overall bit rate : 20.2 Mb/s

Turbo-x ACT-200 2.7K 30fps

Video
ID : 1
Format : AVC
Format/Info : Advanced Video Codec
Format profile : Main@L5.1
Format settings : CABAC / 1 Ref Frames
Format settings, CABAC : Yes
Format settings, RefFrames : 1 frame
Codec ID : avc1
Codec ID/Info : Advanced Video Coding
Duration : 10 s 966 ms
Source duration : 10 s 933 ms
Bit rate : 19.4 Mb/s
Width : 2 688 pixels
Height : 1 520 pixels
Display aspect ratio : 16:9
Frame rate : 30.000 FPS
Color space : YUV
Chroma subsampling : 4:2:0
Bit depth : 8 bits
Scan type : Progressive
Bits/(Pixel*Frame) : 0.159
Stream size : 25.4 MiB (96%)
Source stream size : 25.4 MiB (96%)
Language : English
Color range : Limited
Color primaries : BT.601 PAL
Transfer characteristics : BT.601
Matrix coefficients : BT.470 System B/G
mdhd_Duration : 10966
Codec configuration box : avcC

Audio
ID : 2
Format : AAC LC
Format/Info : Advanced Audio Codec Low Complexity
Codec ID : mp4a-40-2
Duration : 10 s 966 ms
Source duration : 10 s 368 ms
Bit rate mode : Variable
Channel(s) : 1 channel
Channel layout : C
Sampling rate : 8 000 Hz
Frame rate : 7.813 FPS (1024 SPF)
Compression mode : Lossy
Source stream size : 22.4 KiB (0%)
Language : English
mdhd_Duration : 10966

Turbo-X-Action-Cam-Act-200-V3A

Άγιος Νικόλαος Εκκλησία στη Λάρισα  Ηπείρου 52, 412 22
St. Nicholas Church Larissa Greece

Turbo-x ACT-200 UHD 4K 30fps 14.0 Mb/s Action Cam



Format : MPEG-4
File size : 19.7 MiB
Duration : 11 s 166 ms
Overall bit rate mode : Variable
Overall bit rate : 14.8 Mb/s

Turbo-x ACT-200 4K 30fps UHD

Video
ID : 1
Format : AVC
Format/Info : Advanced Video Codec
Format profile : Main@L5.1
Format settings : CABAC / 1 Ref Frames
Format settings, CABAC : Yes
Format settings, RefFrames : 1 frame
Codec ID : avc1
Codec ID/Info : Advanced Video Coding
Duration : 11 s 166 ms
Source duration : 11 s 133 ms
Bit rate : 14.0 Mb/s
Width : 3 840 pixels
Height : 2 160 pixels
Display aspect ratio : 16:9
Frame rate : 30.000 FPS
Color space : YUV
Chroma subsampling : 4:2:0
Bit depth : 8 bits
Scan type : Progressive
Bits/(Pixel*Frame) : 0.056
Stream size : 18.7 MiB (95%)
Source stream size : 18.7 MiB (95%)
Language : English
Color range : Limited
Color primaries : BT.601 PAL
Transfer characteristics : BT.601
Matrix coefficients : BT.470 System B/G
mdhd_Duration : 11166
Codec configuration box : avcC

Audio
ID : 2
Format : AAC LC
Format/Info : Advanced Audio Codec Low Complexity
Codec ID : mp4a-40-2
Duration : 11 s 166 ms
Source duration : 10 s 624 ms
Bit rate mode : Variable
Channel(s) : 1 channel
Channel layout : C
Sampling rate : 8 000 Hz
Frame rate : 7.813 FPS (1024 SPF)
Compression mode : Lossy
Source stream size : 22.3 KiB (0%)
Language : English
mdhd_Duration : 11166

Turbo-X-Action-Cam-Act-200-V3A
Άγιος Νικόλαος Εκκλησία στη Λάρισα  Ηπείρου 52, 412 22
St. Nicholas Church Larissa Greece

Genova città deserta Seconda parte rimaniamo a casa Μένουμε Σπίτι και εμείς

rimaniamo a casa Seconda parte Genova città deserta #StayHome Γένοβα δεύτερο μέρος Μένουμε Σπίτι και εμείς 2nd Part desert Genoa Geno...