Showing posts with label m42 to Pentax PQ. Show all posts
Showing posts with label m42 to Pentax PQ. Show all posts

Moon2 : Pentax Q Video test with MTO MC 3M-5CA 500mm F8 Ø72 M42 to Pq Night




2nd Moon with MTO MC 3M-5CA 500mm F8 Camera : Pentax Q 12.4 Mp 1/2.3-inch CMOS Crop factor 5.62 Lens : MTO MC 3M-5CA 500mm F8 Ø72 M42 @ f/8 2810‬mm equivalent 35mm Mode : M Shutter 1/50 ISO 125 EV 0,0 Video Stabilization OFF Video 1920x1080 @ 30fps Don’t forget to click the bell to turn on post notifications! Nikolaos Instagram: https://www.instagram.com/sakellarisnikolaos/ Twitter: https://twitter.com/SakellarisNiko Facebook: https://www.facebook.com/nikolaos.sakellaris/ Blog: https://video-photo-blog.blogspot.com/ Complete name : DCIM\133_1402\IMGP8702.MOV Format : MPEG-4 Format profile : QuickTime Codec ID : qt 2007.09 (qt /####) File size : 220 MiB Duration : 3 min 1 s Overall bit rate mode : Variable Overall bit rate : 10.2 Mb/s thmb : AX Video ID : 1 Format : AVC Format/Info : Advanced Video Codec Format profile : Main@L4 Format settings : CABAC / 2 Ref Frames Format settings, CABAC : Yes Format settings, RefFrames : 2 frames Codec ID : avc1 Codec ID/Info : Advanced Video Coding Duration : 3 min 1 s Source duration : 3 min 1 s Bit rate mode : Variable Bit rate : 8 613 kb/s Maximum bit rate : 20.0 Mb/s Width : 1 920 pixels Height : 1 080 pixels Display aspect ratio : 16:9 Frame rate mode : Constant Frame rate : 29.970 (30000/1001) FPS Color space : YUV Chroma subsampling : 4:2:0 Bit depth : 8 bits Scan type : Progressive Bits/(Pixel*Frame) : 0.139 Stream size : 186 MiB (85%) Source stream size : 186 MiB (85%) Language : English mdhd_Duration : 181567 Codec configuration box : avcC Audio ID : 2 Format : PCM Format settings : Little / Signed Codec ID : sowt Duration : 3 min 1 s Bit rate mode : Constant Bit rate : 1 536 kb/s Channel(s) : 2 channels Channel layout : L R Sampling rate : 48.0 kHz Bit depth : 16 bits Stream size : 33.2 MiB (15%) Language : English mdhd_Duration : 181567

Moon 1 : Pentax Q Video test with MTO MC 3M-5CA 500mm F8 Ø72 M42 to Pq Night




1st Moon with MTO MC 3M-5CA 500mm F8 Camera : Pentax Q 12.4 Mp 1/2.3-inch CMOS Crop factor 5.62 Lens : MTO MC 3M-5CA 500mm F8 Ø72 M42 @ f/8 2810‬mm equivalent 35mm Mode : M Shutter 1/50 ISO 125 EV 0,0 Video Stabilization OFF Video 1920x1080 @ 30fps Don’t forget to click the bell to turn on post notifications! Nikolaos Instagram: https://www.instagram.com/sakellarisnikolaos/ Twitter: https://twitter.com/SakellarisNiko Facebook: https://www.facebook.com/nikolaos.sakellaris/ Blog: https://video-photo-blog.blogspot.com/ Complete name : DCIM\133_1402\IMGP8701.MOV Format : MPEG-4 Format profile : QuickTime Codec ID : qt 2007.09 (qt /####) File size : 135 MiB Duration : 2 min 1 s Overall bit rate mode : Variable Overall bit rate : 9 347 kb/s thmb : AX Video ID : 1 Format : AVC Format/Info : Advanced Video Codec Format profile : Main@L4 Format settings : CABAC / 2 Ref Frames Format settings, CABAC : Yes Format settings, RefFrames : 2 frames Codec ID : avc1 Codec ID/Info : Advanced Video Coding Duration : 2 min 1 s Source duration : 2 min 1 s Bit rate mode : Variable Bit rate : 7 798 kb/s Maximum bit rate : 20.0 Mb/s Width : 1 920 pixels Height : 1 080 pixels Display aspect ratio : 16:9 Frame rate mode : Constant Frame rate : 29.970 (30000/1001) FPS Color space : YUV Chroma subsampling : 4:2:0 Bit depth : 8 bits Scan type : Progressive Bits/(Pixel*Frame) : 0.125 Stream size : 113 MiB (83%) Source stream size : 113 MiB (83%) Language : English mdhd_Duration : 121300 Codec configuration box : avcC Audio ID : 2 Format : PCM Format settings : Little / Signed Codec ID : sowt Duration : 2 min 1 s Bit rate mode : Constant Bit rate : 1 536 kb/s Channel(s) : 2 channels Channel layout : L R Sampling rate : 48.0 kHz Bit depth : 16 bits Stream size : 22.2 MiB (16%) Language : English mdhd_Duration : 121300

Genova città deserta Seconda parte rimaniamo a casa Μένουμε Σπίτι και εμείς

rimaniamo a casa Seconda parte Genova città deserta #StayHome Γένοβα δεύτερο μέρος Μένουμε Σπίτι και εμείς 2nd Part desert Genoa Geno...