Showing posts with label Canon. Show all posts
Showing posts with label Canon. Show all posts

Moon : Pentax Q Video test with Vivitar-55MM 1:2.8 MC MACRO Ø62 FD to Pq Night



Moon with Vivitar-55MM 1:2.8 MC MACRO Camera : Pentax Q 12.4 Mp 1/2.3-inch CMOS Crop factor 5.62 Lens : Vivitar-55MM 1:2.8 MC MACRO Ø62 FD @ f/2.8 310mm equivalent 35mm Mode : M Shutter 1/250 ISO 125 EV 0,0 Video Stabilization OFF Video 1920x1080 @ 30fps Don’t forget to click the bell to turn on post notifications! Nikolaos Instagram: https://www.instagram.com/sakellarisnikolaos/ Twitter: https://twitter.com/SakellarisNiko Facebook: https://www.facebook.com/nikolaos.sakellaris/ Blog: https://video-photo-blog.blogspot.com/ Complete name : DCIM\133_1402\IMGP8700.MOV Format : MPEG-4 Format profile : QuickTime Codec ID : qt 2007.09 (qt /####) File size : 82.8 MiB Duration : 2 min 42 s Overall bit rate mode : Variable Overall bit rate : 4 273 kb/s thmb : AX Video ID : 1 Format : AVC Format/Info : Advanced Video Codec Format profile : Main@L4 Format settings : CABAC / 2 Ref Frames Format settings, CABAC : Yes Format settings, RefFrames : 2 frames Codec ID : avc1 Codec ID/Info : Advanced Video Coding Duration : 2 min 42 s Source duration : 2 min 42 s Bit rate mode : Variable Bit rate : 2 727 kb/s Maximum bit rate : 20.0 Mb/s Width : 1 920 pixels Height : 1 080 pixels Display aspect ratio : 16:9 Frame rate mode : Constant Frame rate : 29.970 (30000/1001) FPS Color space : YUV Chroma subsampling : 4:2:0 Bit depth : 8 bits Scan type : Progressive Bits/(Pixel*Frame) : 0.044 Stream size : 52.8 MiB (64%) Source stream size : 52.8 MiB (64%) Language : English mdhd_Duration : 162560 Codec configuration box : avcC Audio ID : 2 Format : PCM Format settings : Little / Signed Codec ID : sowt Duration : 2 min 42 s Bit rate mode : Constant Bit rate : 1 536 kb/s Channel(s) : 2 channels Channel layout : L R Sampling rate : 48.0 kHz Bit depth : 16 bits Stream size : 29.8 MiB (36%) Language : English

Birds antennas roofs testing zoom 10x : Canon HG10 video test AVCHD 1080 50i




Birds antennas roofs testing zoom 10x Camera : Canon HG10 Lens: Canon Hd video lens 6.1-61mm f/1.8-2.8. 35 mm equivalent: : 43.6-436 mm Mode AUTO stabilizer ON video test 1080 FHD 1440 x 1080 50i Don’t forget to click the bell to turn on post notifications! Nikolaos Instagram: https://www.instagram.com/sakellarisnikolaos/ Twitter: https://twitter.com/SakellarisNiko Facebook: https://www.facebook.com/nikolaos.sakellaris/ Blog: https://video-photo-blog.blogspot.com/ Complete name : Desktop\hg10\00017.MTS Format : BDAV Format/Info : Blu-ray Video File size : 162 MiB Duration : 1 min 33 s Overall bit rate mode : Variable Overall bit rate : 14.6 Mb/s Maximum Overall bit rate : 18.0 Mb/s Recorded date : 2020-01-08 16:02:45+02:00 Writing application : Canon Video ID : 4113 (0x1011) Menu ID : 1 (0x1) Format : AVC Format/Info : Advanced Video Codec Format profile : High@L4 Format settings : CABAC / 2 Ref Frames Format settings, CABAC : Yes Format settings, Reference frames : 2 frames Format settings, GOP : M=3, N=12 Codec ID : 27 Duration : 1 min 33 s Bit rate mode : Variable Bit rate : 13.7 Mb/s Maximum bit rate : 16.0 Mb/s Width : 1 440 pixels Height : 1 080 pixels Display aspect ratio : 16:9 Frame rate : 25.000 FPS Color space : YUV Chroma subsampling : 4:2:0 Bit depth : 8 bits Scan type : Interlaced Scan type, store method : Separated fields Scan order : Top Field First Bits/(Pixel*Frame) : 0.353 Stream size : 152 MiB (94%) Audio ID : 4352 (0x1100) Menu ID : 1 (0x1) Format : AC-3 Format/Info : Audio Coding 3 Commercial name : Dolby Digital Codec ID : 129 Duration : 1 min 33 s Bit rate mode : Constant Bit rate : 256 kb/s Channel(s) : 2 channels Channel layout : L R Sampling rate : 48.0 kHz Frame rate : 31.250 FPS (1536 SPF) Compression mode : Lossy Delay relative to video : -80 ms Stream size : 2.84 MiB (2%) Service kind : Complete Main

Birds in love testing zoom 10x : Canon HG10 video test AVCHD 1080 50i





Birds in love testing zoom 10x Camera : Canon HG10 Lens: Canon Hd video lens 6.1-61mm f/1.8-2.8. 35 mm equivalent: : 43.6-436 mm Mode AUTO stabilizer ON video test 1080 FHD 1440 x 1080 50i Don’t forget to click the bell to turn on post notifications! Nikolaos Instagram: https://www.instagram.com/sakellarisnikolaos/ Twitter: https://twitter.com/SakellarisNiko Facebook: https://www.facebook.com/nikolaos.sakellaris/ Blog: https://video-photo-blog.blogspot.com/ Complete name : C:\Users\user1\Desktop\hg10\00016.MTS Format : BDAV Format/Info : Blu-ray Video ca File size : 172 MiB Duration : 1 min 41 s Overall bit rate mode : Variable Overall bit rate : 14.2 Mb/s Maximum Overall bit rate : 18.0 Mb/s Recorded date : 2020-01-08 16:00:14+02:00 Writing application : Canon Video ID : 4113 (0x1011) Menu ID : 1 (0x1) Format : AVC Format/Info : Advanced Video Codec Format profile : High@L4 Format settings : CABAC / 2 Ref Frames Format settings, CABAC : Yes Format settings, Reference frames : 2 frames Format settings, GOP : M=3, N=12 Codec ID : 27 Duration : 1 min 41 s Bit rate mode : Variable Bit rate : 13.4 Mb/s Maximum bit rate : 16.0 Mb/s Width : 1 440 pixels Height : 1 080 pixels Display aspect ratio : 16:9 Frame rate : 25.000 FPS Color space : YUV Chroma subsampling : 4:2:0 Bit depth : 8 bits Scan type : Interlaced Scan type, store method : Separated fields Scan order : Top Field First Bits/(Pixel*Frame) : 0.344 Stream size : 162 MiB (94%) Audio ID : 4352 (0x1100) Menu ID : 1 (0x1) Format : AC-3 Format/Info : Audio Coding 3 Commercial name : Dolby Digital Codec ID : 129 Duration : 1 min 41 s Bit rate mode : Constant Bit rate : 256 kb/s Channel(s) : 2 channels Channel layout : L R Sampling rate : 48.0 kHz Frame rate : 31.250 FPS (1536 SPF) Compression mode : Lossy Delay relative to video : -80 ms Stream size : 3.11 MiB (2%) Service kind : Complete Main

Kissavos mountain Greece testing zoom 10x : Canon HG10 video test AVCHD 1080 50i




Kissavos mountain Greece testing zoom 10x Camera : Canon HG10 Lens: Canon Hd video lens 6.1-61mm f/1.8-2.8. 35 mm equivalent: : 43.6-436 mm Mode AUTO stabilizer ON video test 1080 FHD 1440 x 1080 50i Don’t forget to click the bell to turn on post notifications! Nikolaos Instagram: https://www.instagram.com/sakellarisnikolaos/ Twitter: https://twitter.com/SakellarisNiko Facebook: https://www.facebook.com/nikolaos.sakellaris/ Blog: https://video-photo-blog.blogspot.com/ Complete name : Desktop\hg10\00015.MTS Format : BDAV Format/Info : Blu-ray Video File size : 125 MiB Duration : 1 min 11 s Overall bit rate mode : Variable Overall bit rate : 14.6 Mb/s Maximum Overall bit rate : 18.0 Mb/s Recorded date : 2020-01-08 15:58:33+02:00 Writing application : Canon Video ID : 4113 (0x1011) Menu ID : 1 (0x1) Format : AVC Format/Info : Advanced Video Codec Format profile : High@L4 Format settings : CABAC / 2 Ref Frames Format settings, CABAC : Yes Format settings, Reference frames : 2 frames Format settings, GOP : M=3, N=12 Codec ID : 27 Duration : 1 min 11 s Bit rate mode : Variable Bit rate : 13.8 Mb/s Maximum bit rate : 16.0 Mb/s Width : 1 440 pixels Height : 1 080 pixels Display aspect ratio : 16:9 Frame rate : 25.000 FPS Color space : YUV Chroma subsampling : 4:2:0 Bit depth : 8 bits Scan type : Interlaced Scan type, store method : Separated fields Scan order : Top Field First Bits/(Pixel*Frame) : 0.355 Stream size : 118 MiB (94%) Audio ID : 4352 (0x1100) Menu ID : 1 (0x1) Format : AC-3 Format/Info : Audio Coding 3 Commercial name : Dolby Digital Codec ID : 129 Duration : 1 min 11 s Bit rate mode : Constant Bit rate : 256 kb/s Channel(s) : 2 channels Channel layout : L R Sampling rate : 48.0 kHz Frame rate : 31.250 FPS (1536 SPF) Compression mode : Lossy Delay relative to video : -80 ms Stream size : 2.18 MiB (2%) Service kind : Complete Main

Olympus mountain Greece testing zoom 10x : Canon HG10 video test AVCHD 1080 50i




Olympus mountain Greece testing zoom 10x Camera : Canon HG10 Lens: Canon Hd video lens 6.1-61mm f/1.8-2.8. 35 mm equivalent: : 43.6-436 mm Mode AUTO stabilizer ON video test 1080 FHD 1440 x 1080 50i Don’t forget to click the bell to turn on post notifications! Nikolaos Instagram: https://www.instagram.com/sakellarisnikolaos/ Twitter: https://twitter.com/SakellarisNiko Facebook: https://www.facebook.com/nikolaos.sakellaris/ Blog: https://video-photo-blog.blogspot.com/ Complete name : Desktop\hg10\00014.MTS Format : BDAV Format/Info : Blu-ray Video File size : 149 MiB Duration : 1 min 28 s Overall bit rate mode : Variable Overall bit rate : 14.1 Mb/s Maximum Overall bit rate : 18.0 Mb/s Recorded date : 2020-01-08 15:56:51+02:00 Writing application : Canon Video ID : 4113 (0x1011) Menu ID : 1 (0x1) Format : AVC Format/Info : Advanced Video Codec Format profile : High@L4 Format settings : CABAC / 2 Ref Frames Format settings, CABAC : Yes Format settings, Reference frames : 2 frames Format settings, GOP : M=3, N=12 Codec ID : 27 Duration : 1 min 28 s Bit rate mode : Variable Bit rate : 13.2 Mb/s Maximum bit rate : 16.0 Mb/s Width : 1 440 pixels Height : 1 080 pixels Display aspect ratio : 16:9 Frame rate : 25.000 FPS Color space : YUV Chroma subsampling : 4:2:0 Bit depth : 8 bits Scan type : Interlaced Scan type, store method : Separated fields Scan order : Top Field First Bits/(Pixel*Frame) : 0.341 Stream size : 140 MiB (94%) Audio ID : 4352 (0x1100) Menu ID : 1 (0x1) Format : AC-3 Format/Info : Audio Coding 3 Commercial name : Dolby Digital Codec ID : 129 Duration : 1 min 28 s Bit rate mode : Constant Bit rate : 256 kb/s Channel(s) : 2 channels Channel layout : L R Sampling rate : 48.0 kHz Frame rate : 31.250 FPS (1536 SPF) Compression mode : Lossy Delay relative to video : -80 ms Stream size : 2.71 MiB (2%) Service kind : Complete Main

Sun flares Belfry testing zoom 10x : Canon HG10 video test AVCHD 1080 50i



Sun flares belfry trees testing zoom 10x Camera : Canon HG10 Lens: Canon Hd video lens 6.1-61mm f/1.8-2.8. 35 mm equivalent: : 43.6-436 mm Mode AUTO stabilizer ON video test 1080 FHD 1440 x 1080 50i Complete name : Desktop\hg10\00013.MTS Format : BDAV Format/Info : Blu-ray Video File size : 118 MiB Duration : 1 min 3 s Overall bit rate mode : Variable Overall bit rate : 15.5 Mb/s Maximum Overall bit rate : 18.0 Mb/s Recorded date : 2020-01-08 15:46:18+02:00 Writing application : Canon Video ID : 4113 (0x1011) Menu ID : 1 (0x1) Format : AVC Format/Info : Advanced Video Codec Format profile : High@L4 Format settings : CABAC / 2 Ref Frames Format settings, CABAC : Yes Format settings, Reference frames : 2 frames Format settings, GOP : M=3, N=12 Codec ID : 27 Duration : 1 min 3 s Bit rate mode : Variable Bit rate : 14.6 Mb/s Maximum bit rate : 16.0 Mb/s Width : 1 440 pixels Height : 1 080 pixels Display aspect ratio : 16:9 Frame rate : 25.000 FPS Color space : YUV Chroma subsampling : 4:2:0 Bit depth : 8 bits Scan type : Interlaced Scan type, store method : Separated fields Scan order : Top Field First Bits/(Pixel*Frame) : 0.376 Stream size : 111 MiB (94%) Audio ID : 4352 (0x1100) Menu ID : 1 (0x1) Format : AC-3 Format/Info : Audio Coding 3 Commercial name : Dolby Digital Codec ID : 129 Duration : 1 min 3 s Bit rate mode : Constant Bit rate : 256 kb/s Channel(s) : 2 channels Channel layout : L R Sampling rate : 48.0 kHz Frame rate : 31.250 FPS (1536 SPF) Compression mode : Lossy Delay relative to video : -80 ms Stream size : 1.95 MiB (2%) Service kind : Complete Main

Moon : Canon HG10 video test AVCHD 1080 25fps




Moon Camera : Canon HG10 Lens: Canon Hd video lens 6.1-61mm f/1.8-2.8. 35 mm equivalent: : 43.6-436 mm Mode Tv shutter 1/2000 MF exposure -11 stabilizer ON video test 1080 FHD 1440 x 1080 25fps Complete name : Desktop\hg10\00012.MTS Format : BDAV Format/Info : Blu-ray Video File size : 136 MiB Duration : 1 min 11 s Overall bit rate mode : Variable Overall bit rate : 16.1 Mb/s Maximum Overall bit rate : 18.0 Mb/s Recorded date : 2020-01-07 22:31:15+02:00 Writing application : Canon Video ID : 4113 (0x1011) Menu ID : 1 (0x1) Format : AVC Format/Info : Advanced Video Codec Format profile : High@L4 Format settings : CABAC / 2 Ref Frames Format settings, CABAC : Yes Format settings, Reference frames : 2 frames Format settings, GOP : M=3, N=12 Codec ID : 27 Duration : 1 min 10 s Bit rate mode : Variable Bit rate : 15.2 Mb/s Maximum bit rate : 16.0 Mb/s Width : 1 440 pixels Height : 1 080 pixels Display aspect ratio : 16:9 Frame rate : 25.000 FPS Color space : YUV Chroma subsampling : 4:2:0 Bit depth : 8 bits Scan type : Interlaced Scan type, store method : Separated fields Scan order : Top Field First Bits/(Pixel*Frame) : 0.391 Stream size : 129 MiB (94%) Audio ID : 4352 (0x1100) Menu ID : 1 (0x1) Format : AC-3 Format/Info : Audio Coding 3 Commercial name : Dolby Digital Codec ID : 129 Duration : 1 min 11 s Bit rate mode : Constant Bit rate : 256 kb/s Channel(s) : 2 channels Channel layout : L R Sampling rate : 48.0 kHz Frame rate : 31.250 FPS (1536 SPF) Compression mode : Lossy Delay relative to video : -80 ms Stream size : 2.17 MiB (2%) Service kind : Complete Main

Sunset Clouds Canon 250D video test with Helios-44-2 2/58 M42 adapted to EOS 4K @ 25fps sl3




Sunset Clouds Camera : Canon EOS 250d 4K 25p crop 2.6 @ 4K Lens : Helios-44-2 58mm f/2 Ø52 M42 @ f/2 130mm equivalent 35mm Mode A Iso 800 50mm 4k cropped 2.6x video stabilisation OFF canon sl3 adapted Complete name : Desktop\104PHOTO\MVI_7785.MP4 Format : MPEG-4 Format profile : Base Media / Version 2 Codec ID : mp42 (mp42/avc1/CAEP) File size : 929 MiB Duration : 1 min 5 s Overall bit rate : 119 Mb/s Video ID : 1 Format : AVC Format/Info : Advanced Video Codec Format profile : High@L5.1 Format settings : 2 Ref Frames Format settings, CABAC : No Format settings, RefFrames : 2 frames Format settings, GOP : M=3, N=12 Codec ID : avc1 Codec ID/Info : Advanced Video Coding Duration : 1 min 5 s Bit rate : 119 Mb/s Width : 3 840 pixels Height : 2 160 pixels Display aspect ratio : 16:9 Frame rate mode : Constant Frame rate : 25.000 FPS Color space : YUV Chroma subsampling : 4:2:0 Bit depth : 8 bits Scan type : Progressive Bits/(Pixel*Frame) : 0.573 Stream size : 927 MiB (100%) Language : English Color range : Full Color primaries : BT.709 Transfer characteristics : BT.709 Matrix coefficients : BT.709 Codec configuration box : avcC Audio ID : 2 Format : AAC LC Format/Info : Advanced Audio Codec Low Complexity Codec ID : mp4a-40-2 Duration : 1 min 5 s Bit rate mode : Constant Bit rate : 256 kb/s Channel(s) : 2 channels Channel layout : L R Sampling rate : 48.0 kHz Frame rate : 46.875 FPS (1024 SPF) Compression mode : Lossy Stream size : 1.98 MiB (0%) Language : English

Sunset Clouds Canon 250D video test with ARSAT H 50mm 1:2 Nikon AI adapted to EOS 4K @ 25fps sl3




Sunset Clouds Camera : Canon EOS 250d 4K 25p crop 2.6 @ 4K Lens : ARSAT H 50mm f/2 Ø52 Nikon AI @ f/2 130mm equivalent 35mm Mode A Iso 800 50mm 4k cropped 2.6x video stabilisation OFF canon sl3 adapted Complete name : Desktop\104PHOTO\MVI_7771.MP4 Format : MPEG-4 Format profile : Base Media / Version 2 Codec ID : mp42 (mp42/avc1/CAEP) File size : 924 MiB Duration : 1 min 5 s Overall bit rate : 119 Mb/s Video ID : 1 Format : AVC Format/Info : Advanced Video Codec Format profile : High@L5.1 Format settings : 2 Ref Frames Format settings, CABAC : No Format settings, RefFrames : 2 frames Format settings, GOP : M=3, N=12 Codec ID : avc1 Codec ID/Info : Advanced Video Coding Duration : 1 min 5 s Bit rate : 119 Mb/s Width : 3 840 pixels Height : 2 160 pixels Display aspect ratio : 16:9 Frame rate mode : Constant Frame rate : 25.000 FPS Color space : YUV Chroma subsampling : 4:2:0 Bit depth : 8 bits Scan type : Progressive Bits/(Pixel*Frame) : 0.573 Stream size : 922 MiB (100%) Language : English Color range : Full Color primaries : BT.709 Transfer characteristics : BT.709 Matrix coefficients : BT.709 Codec configuration box : avcC Audio ID : 2 Format : AAC LC Format/Info : Advanced Audio Codec Low Complexity Codec ID : mp4a-40-2 Duration : 1 min 5 s Bit rate mode : Constant Bit rate : 256 kb/s Channel(s) : 2 channels Channel layout : L R Sampling rate : 48.0 kHz Frame rate : 46.875 FPS (1024 SPF) Compression mode : Lossy Stream size : 1.97 MiB (0%) Language : English

Central square Larissa. 2019 Christmas tree 🎄 Canon 250D 4K 25p




2019 Christmas tree 🎄 Central square Larissa Camera : Canon EOS 250d 4K 25p Lens : Canon Zoom Lens EF-S 18-55mm f/3.5-5.6 III autofocus ON Mode A Iso 800 18mm 4k cropped 2.6x video stabilisation OFF Complete name : Canon EOS 250D\Video\MVI_7763.MP4 Format : MPEG-4 Format profile : Base Media / Version 2 Codec ID : mp42 (mp42/avc1/CAEP) File size : 1.05 GiB Duration : 1 min 15 s Overall bit rate : 119 Mb/s Encoded date : UTC 2019-12-23 13:57:08 Video ID : 1 Format : AVC Format/Info : Advanced Video Codec Format profile : High@L5.1 Format settings : 2 Ref Frames Format settings, CABAC : No Format settings, Reference frames : 2 frames Format settings, GOP : M=3, N=12 Codec ID : avc1 Codec ID/Info : Advanced Video Coding Duration : 1 min 15 s Bit rate : 119 Mb/s Width : 3 840 pixels Height : 2 160 pixels Display aspect ratio : 16:9 Frame rate mode : Constant Frame rate : 25.000 FPS Color space : YUV Chroma subsampling : 4:2:0 Bit depth : 8 bits Scan type : Progressive Bits/(Pixel*Frame) : 0.572 Stream size : 1.05 GiB (100%) Language : English Color range : Full Color primaries : BT.709 Transfer characteristics : BT.709 Matrix coefficients : BT.709 Codec configuration box : avcC Audio ID : 2 Format : AAC LC Format/Info : Advanced Audio Codec Low Complexity Codec ID : mp4a-40-2 Duration : 1 min 15 s Bit rate mode : Constant Bit rate : 256 kb/s Channel(s) : 2 channels Channel layout : L R Sampling rate : 48.0 kHz Frame rate : 46.875 FPS (1024 SPF) Compression mode : Lossy Stream size : 2.29 MiB (0%) Language : English

Cat in the park Larissa Greece 1080 50fps Canon EOS 250d + Canon Lens EF-S 18-55mm f/3.5-5.6 III




Cat in the park Larissa Greece Camera : Canon EOS 250d Lens : Canon Zoom Lens EF-S 18-55mm f/3.5-5.6 III Mode A Focus MF Canon EOS 250d video test FHD 1080 50fps Complete name : CANON\Canon EOS 250D\MVI_7611.MP4 Format : MPEG-4 Format profile : Base Media / Version 2 Codec ID : mp42 (mp42/avc1/CAEP) File size : 454 MiB Duration : 1 min 3 s Overall bit rate : 60.0 Mb/s Encoded date : UTC 2019-12-03 14:10:46 Tagged date : UTC 2019-12-03 14:10:46 Video ID : 1 Format : AVC Format/Info : Advanced Video Codec Format profile : High@L5.1 Format settings : CABAC / 2 Ref Frames Format settings, CABAC : Yes Format settings, Reference frames : 2 frames Format settings, GOP : M=3, N=24 Codec ID : avc1 Codec ID/Info : Advanced Video Coding Duration : 1 min 3 s Bit rate : 59.7 Mb/s Width : 1 920 pixels Height : 1 080 pixels Display aspect ratio : 16:9 Frame rate mode : Constant Frame rate : 50.000 FPS Color space : YUV Chroma subsampling : 4:2:0 Bit depth : 8 bits Scan type : Progressive Bits/(Pixel*Frame) : 0.576 Stream size : 451 MiB (99%) Language : English Encoded date : UTC 2019-12-03 14:10:46 Tagged date : UTC 2019-12-03 14:10:46 Color range : Full Color primaries : BT.709 Transfer characteristics : BT.709 Matrix coefficients : BT.709 Codec configuration box : avcC Audio ID : 2 Format : AAC LC Format/Info : Advanced Audio Codec Low Complexity Codec ID : mp4a-40-2 Duration : 1 min 3 s Bit rate mode : Constant Bit rate : 256 kb/s Channel(s) : 2 channels Channel layout : L R Sampling rate : 48.0 kHz Frame rate : 46.875 FPS (1024 SPF) Compression mode : Lossy Stream size : 1.91 MiB (0%) Language : English Encoded date : UTC 2019-12-03 14:10:46


Cat in the park Larissa Greece 4K 25fps Canon EOS 250d + Canon Lens EF-S 18-55mm f/3.5-5.6 III





Cat in the park Larissa Greece
Camera : Canon EOS 250d
Lens : Canon  Zoom Lens EF-S 18-55mm f/3.5-5.6 III
Mode A Focus MF
Canon EOS 250d video test UHD 4K 25fps

V30 A1 UHS-I U3 CLASS10 2:15:47 there was a video test


 V30 A1 UHS-I U3 CLASS10  


 V30 A1 UHS-I U3 CLASS10


 V30 A1 UHS-I U3 CLASS10



Complete name : DCIM\101YICAM\MVI_7609.MP4
Format : MPEG-4
Format profile : Base Media / Version 2
Codec ID : mp42 (mp42/avc1/CAEP)
File size : 858 MiB
Duration : 1 min 0 s
Overall bit rate : 119 Mb/s
Encoded date : UTC 2019-12-03 14:08:14
Tagged date : UTC 2019-12-03 14:08:14

Video
ID : 1
Format : AVC
Format/Info : Advanced Video Codec
Format profile : High@L5.1
Format settings : 2 Ref Frames
Format settings, CABAC : No
Format settings, RefFrames : 2 frames
Format settings, GOP : M=3, N=12
Codec ID : avc1
Codec ID/Info : Advanced Video Coding
Duration : 1 min 0 s
Bit rate : 119 Mb/s
Width : 3 840 pixels
Height : 2 160 pixels
Display aspect ratio : 16:9
Frame rate mode : Constant
Frame rate : 25.000 FPS
Color space : YUV
Chroma subsampling : 4:2:0
Bit depth : 8 bits
Scan type : Progressive
Bits/(Pixel*Frame) : 0.573
Stream size : 856 MiB (100%)
Language : English
Encoded date : UTC 2019-12-03 14:08:14
Tagged date : UTC 2019-12-03 14:08:14
Color range : Full
Color primaries : BT.709
Transfer characteristics : BT.709
Matrix coefficients : BT.709
Codec configuration box : avcC

Audio
ID : 2
Format : AAC LC
Format/Info : Advanced Audio Codec Low Complexity
Codec ID : mp4a-40-2
Duration : 1 min 0 s
Bit rate mode : Constant
Bit rate : 256 kb/s
Channel(s) : 2 channels
Channel layout : L R
Sampling rate : 48.0 kHz
Frame rate : 46.875 FPS (1024 SPF)
Compression mode : Lossy
Stream size : 1.83 MiB (0%)
Language : English
Encoded date : UTC 2019-12-03 14:08:14

Fireworks new years eve Larissa 2019




Fireworks new years eve Larissa 2019
Samsung NX1100 wirh Canon FL 50mm f/1.4

Complete name : SAMSUNG\NX1100\VIDEO\12121170.MP4
Format : MPEG-4
Format profile : Base Media / Version 2
Codec ID : mp42 (mp42/isom/avc1)
File size : 351 MiB
Duration : 5 min 53 s
Overall bit rate : 8 332 kb/s

Video
ID : 1
Format : AVC
Format/Info : Advanced Video Codec
Format profile : High@L4.1
Format settings : 2 Ref Frames
Format settings, CABAC : No
Format settings, Reference frames : 2 frames
Format settings, GOP : M=1, N=24
Codec ID : avc1
Codec ID/Info : Advanced Video Coding
Duration : 5 min 52 s
Bit rate : 8 201 kb/s
Width : 1 920 pixels
Height : 810 pixels
Display aspect ratio : 2.40:1
Frame rate mode : Constant
Frame rate : 24.000 FPS
Color space : YUV
Chroma subsampling : 4:2:0
Bit depth : 8 bits
Scan type : Progressive
Bits/(Pixel*Frame) : 0.220
Stream size : 345 MiB (98%)
Language : English
Codec configuration box : avcC

Audio
ID : 2
Format : AAC LC
Format/Info : Advanced Audio Codec Low Complexity
Codec ID : mp4a-40-2
Duration : 5 min 53 s
Bit rate mode : Constant
Bit rate : 128 kb/s
Channel(s) : 2 channels
Channel layout : L R
Sampling rate : 32.0 kHz
Frame rate : 31.250 FPS (1024 SPF)
Compression mode : Lossy
Stream size : 5.30 MiB (2%)
Language : English

2 Depth of field test f/1.4 to F/16 OLYMPUS OM-D E-M10 withCanon FL 50mm f/1.4 FHD 30fps




2 Depth of field test
OLYMPUS\OM-D E-M10 FHD 30fps 
Depth of field test Canon FL 50mm f/1.4  from f/1.4  to F/16
Video Test


Complete name : F:\PHOTO\OLYMPUS\OM-D E-M10\video\PA060073.MOV
Format : MPEG-4
Format profile : QuickTime
Codec ID : qt 2011.07 (qt )
File size : 70.2 MiB
Duration : 30 s 30 ms
Overall bit rate : 19.6 Mb/s
Encoded date : UTC 2019-10-06 13:49:06
Tagged date : UTC 2019-10-06 13:49:06
TAGS : 8"R

Video
ID : 1
Format : AVC
Format/Info : Advanced Video Codec
Format profile : High@L4.1
Format settings : 2 Ref Frames
Format settings, CABAC : No
Format settings, Reference frames : 2 frames
Format settings, GOP : M=3, N=8
Codec ID : avc1
Codec ID/Info : Advanced Video Coding
Duration : 30 s 30 ms
Bit rate : 17.8 Mb/s
Width : 1 920 pixels
Height : 1 080 pixels
Display aspect ratio : 16:9
Frame rate mode : Constant
Frame rate : 29.970 (30000/1001) FPS
Color space : YUV
Chroma subsampling : 4:2:0
Bit depth : 8 bits
Scan type : Progressive
Bits/(Pixel*Frame) : 0.287
Stream size : 63.8 MiB (91%)
Language : Japanese
Encoded date : UTC 2019-10-06 13:49:06
Tagged date : UTC 2019-10-06 13:49:06
Color range : Full
Color primaries : BT.601 NTSC
Transfer characteristics : BT.601
Matrix coefficients : BT.601
Menus : 0
Codec configuration box : avcC

Audio
ID : 2
Format : PCM
Format settings : Little / Signed
Codec ID : sowt
Duration : 30 s 30 ms
Source duration : 30 s 40 ms
Bit rate mode : Constant
Bit rate : 1 536 kb/s
Channel(s) : 2 channels
Channel layout : L R
Sampling rate : 48.0 kHz
Bit depth : 16 bits
Stream size : 5.50 MiB (8%)
Source stream size : 5.50 MiB (8%)
Language : Japanese
Encoded date : UTC 2019-10-06 13:49:06


1 Depth of field test f/1.4 to F/16 OLYMPUS OM-D E-M10 with Canon FL 50mm f/1.4 FHD 30fps




1 Depth of field test
OLYMPUS\OM-D E-M10 FHD 30fps 
Depth of field test Canon FL 50mm f/1.4  from f/1.4  to F/16
Video Test

OLYMPUS OM-D E-M10 with Canon FL 50mm f/1.4
OLYMPUS OM-D E-M10 with Canon FL 50mm f/1.4



 f/1.4 Canon FL 50mm f/1.4
 f/1.4 Canon FL 50mm f/1.4

f/2 Canon FL 50mm f/1.4
f/2 Canon FL 50mm f/1.4

f/2.8 Canon FL 50mm f/1.4
f/2.8 Canon FL 50mm f/1.4

f/4 Canon FL 50mm f/1.4
f/4 Canon FL 50mm f/1.4

 f/5.6 Canon FL 50mm f/1.4
 f/5.6 Canon FL 50mm f/1.4

 f/8 Canon FL 50mm f/1.4
 f/8 Canon FL 50mm f/1.4

f/11 Canon FL 50mm f/1.4
f/11Canon FL 50mm f/1.4

 f/16 Canon FL 50mm f/1.4
 f/16 Canon FL 50mm f/1.4

Complete name : OLYMPUS\OM-D E-M10\video\PA060075.MOV
Format : MPEG-4
Format profile : QuickTime
Codec ID : qt 2011.07 (qt )
File size : 39.7 MiB
Duration : 27 s 528 ms
Overall bit rate : 12.1 Mb/s
Encoded date : UTC 2019-10-06 13:51:14
Tagged date : UTC 2019-10-06 13:51:14
TAGS : 8"R

Video
ID : 1
Format : AVC
Format/Info : Advanced Video Codec
Format profile : High@L4.1
Format settings : 2 Ref Frames
Format settings, CABAC : No
Format settings, Reference frames : 2 frames
Format settings, GOP : M=3, N=8
Codec ID : avc1
Codec ID/Info : Advanced Video Coding
Duration : 27 s 528 ms
Bit rate : 10.3 Mb/s
Width : 1 920 pixels
Height : 1 080 pixels
Display aspect ratio : 16:9
Frame rate mode : Constant
Frame rate : 29.970 (30000/1001) FPS
Color space : YUV
Chroma subsampling : 4:2:0
Bit depth : 8 bits
Scan type : Progressive
Bits/(Pixel*Frame) : 0.166
Stream size : 33.8 MiB (85%)
Language : Japanese
Encoded date : UTC 2019-10-06 13:51:14
Tagged date : UTC 2019-10-06 13:51:14
Color range : Full
Color primaries : BT.601 NTSC
Transfer characteristics : BT.601
Matrix coefficients : BT.601
Menus : 0
Codec configuration box : avcC

Audio
ID : 2
Format : PCM
Format settings : Little / Signed
Codec ID : sowt
Duration : 27 s 528 ms
Source duration : 27 s 560 ms
Bit rate mode : Constant
Bit rate : 1 536 kb/s
Channel(s) : 2 channels
Channel layout : L R
Sampling rate : 48.0 kHz
Bit depth : 16 bits
Stream size : 5.04 MiB (13%)
Source stream size : 5.05 MiB (13%)
Language : Japanese
Encoded date : UTC 2019-10-06 13:51:14

Sunset : Xiaomi Yi M1 with Canon FL 50mm f/1.4 FD adapted M4/3 4k




Sunset Larissa Greece
Camera : Xiaomi Yi M1 mirrorless Sony IMX269
Lens : Canon FL 50mm f/1.4 @ 1,7
Mode : A ISO 100 EV 0,0
Video Stabilization ON Video 3840x2160 @ 30fps
FD adapted MFT
Yi M1 FD adapted

Complete name : DCIM\103YICAM\PB040317.MP4
Format : MPEG-4
Format profile : Base Media / Version 2
Codec ID : mp42 (mp42/avc1)
File size : 738 MiB
Duration : 1 min 31 s
Overall bit rate mode : Variable
Overall bit rate : 68.0 Mb/s
Encoded date : UTC 2019-11-04 17:51:47
Tagged date : UTC 2019-11-04 17:51:47

Video
ID : 1
Format : AVC
Format/Info : Advanced Video Codec
Format profile : High@L5.1
Format settings : 1 Ref Frames
Format settings, CABAC : No
Format settings, Reference frames : 1 frame
Format settings, GOP : M=1, N=15
Codec ID : avc1
Codec ID/Info : Advanced Video Coding
Duration : 1 min 31 s
Bit rate : 67.8 Mb/s
Width : 3 840 pixels
Height : 2 160 pixels
Display aspect ratio : 16:9
Frame rate mode : Constant
Frame rate : 29.970 (30000/1001) FPS
Color space : YUV
Chroma subsampling : 4:2:0
Bit depth : 8 bits
Scan type : Progressive
Bits/(Pixel*Frame) : 0.273
Stream size : 737 MiB (100%)
Language : English
Encoded date : UTC 2019-11-04 17:51:47
Tagged date : UTC 2019-11-04 17:51:47
Color range : Full
Color primaries : BT.601 NTSC
Transfer characteristics : BT.709
Matrix coefficients : BT.601
Menus : 3
Codec configuration box : avcC

Audio
ID : 2
Format : AAC LC
Format/Info : Advanced Audio Codec Low Complexity
Codec ID : mp4a-40-2
Duration : 1 min 31 s
Source duration : 1 min 31 s
Bit rate mode : Variable
Bit rate : 128 kb/s
Maximum bit rate : 192 kb/s
Channel(s) : 2 channels
Channel layout : L R
Sampling rate : 48.0 kHz
Frame rate : 46.875 FPS (1024 SPF)
Compression mode : Lossy
Stream size : 1.38 MiB (0%)
Source stream size : 1.38 MiB (0%)
Language : English
Encoded date : UTC 2019-11-04 17:51:47


Sunset Larissa Greece- Canon EOS 1200d + Canon Zoom Lens EF-S 18-55mm f/3.5-5.6 III FHD 1080 24fps




Sunset Larissa Greece
Camera : Canon EOS 1200d
Lens : Canon  Zoom Lens EF-S 18-55mm f/3.5-5.6 III
video test FHD 1080 24fps
Complete name DCIM\100CANON\MVI_7138.MOV
Format : MPEG-4
Format profile : QuickTime
Codec ID : qt 2007.09 (qt /CAEP)
File size : 127 MiB
Duration : 30 s 906 ms
Overall bit rate : 34.4 Mb/s
Encoded date : UTC 2019-03-03 18:32:31

Video
ID : 1
Format : AVC
Format/Info : Advanced Video Codec
Format profile : Baseline@L5
Format settings : 1 Ref Frames
Format settings, CABAC : No
Format settings, RefFrames : 1 frame
Format settings, GOP : M=1, N=12
Codec ID : avc1
Codec ID/Info : Advanced Video Coding
Duration : 30 s 906 ms
Bit rate : 32.9 Mb/s
Width : 1 920 pixels
Height : 1 080 pixels
Original height : 1 088 pixels
Display aspect ratio : 16:9
Original display aspect ratio : 16:9
Frame rate mode : Constant
Frame rate : 23.976 (24000/1001) FPS
Color space : YUV
Chroma subsampling : 4:2:0
Bit depth : 8 bits
Scan type : Progressive
Bits/(Pixel*Frame) : 0.661
Stream size : 121 MiB (95%)
Language : English
Encoded date : UTC 2019-03-03 18:32:31
Color range : Full
Color primaries : BT.709
Transfer characteristics : BT.709
Matrix coefficients : BT.601
Codec configuration box : avcC

Audio
ID : 2
Format : PCM
Format settings : Little / Signed
Codec ID : sowt
Duration : 30 s 906 ms
Bit rate mode : Constant
Bit rate : 1 536 kb/s
Channel(s) : 2 channels
Channel layout : L R
Sampling rate : 48.0 kHz
Bit depth : 16 bits
Stream size : 5.66 MiB (4%)
Language : English
Encoded date : UTC 2019-03-03 18:32:31

Δυο νύχτες Γιώτα Νέγκα 5 Φεστιβάλ Πηνειού 2019 - Lumix DMC-GX80 4k UHD Canon FL 50mm f/1.4



Δυο νύχτες ανταμώσανε
πάνω στα δάκρυά μου
Η νύχτα που σε γνώρισα
κι η νύχτα που χωρίσαμε
Και κλαιν' τα όνειρά μου
Θα πνίξουν την καρδιά μου
Χωρίς την αγάπη σου θα ήμουνα μόνος
η πίκρα θα μ έπνιγε το δάκρυ ο πόνος
εσύ με οδήγησες στη γη στην ελπίδα
του κόσμου το νόημα στα μάτια σου είδα
Αλίμονο σ αυτούς που δεν αγάπησαν
αλίμονο, αλίμονο, αλίμονο
αλίμονο σ αυτούς που δε δακρύσανε ζωή
την ομορφιά σου δε γνωρίσανε ζωή
την ομορφιά σου δε γνωρίσανε

Κάπου νυχτώνει Γιώτα Νέγκα 4 :Φεστιβάλ Πηνειού 2019 - DMC-GX80 4k UHD Canon FL 50mm f/1.4




Κάπου νυχτώνει
Φεστιβάλ Πηνειού 2019 video 4
Γιώτα Νέγκα
Panasonic Lumix DMC-GX80
4k UHD
Canon FL 50mm f/1.4 @ 1.8

Γύρνα τις ώρες που χάθηκαν απόψε
κοίτα που φεύγεις πώς κλαίει το δειλινό

Κάπου νυχτώνει κι ο ήλιος παγώνει
χάνεται ο δρόμος και πού να σταθώ
κάπου βραδιάζει μην κλαις δεν πειράζει
πες πως τελειώνει ο κόσμος εδώ

Αγέρας παίρνει απόψε τη ζωή μου
κλείνω τα μάτια που φεύγεις να μη δω

Κάπου νυχτώνει κι ο ήλιος παγώνει
χάνεται ο δρόμος και πού να σταθώ
κάπου βραδιάζει μην κλαις δεν πειράζει
πες πως τελειώνει ο κόσμος εδώ

Θα κλείσω τα μάτια Γιώτα Νέγκα 6 Φεστιβάλ Πηνειού 2019 - : Panasonic Lumix DMC-GX80 4k UHD Canon FL 50mm f/1.4




Φεστιβάλ Πηνειού 2019 video 6
Γιώτα Νέγκα
Panasonic Lumix DMC-GX80
4k UHD
Canon FL 50mm f/1.4 @ 1.8



Σε πότισα το πιο γλυκό μου δάκρυ
με πότισες τον πιο γλυκό καημό
σε άγγιξα στου ονείρου μου την άκρη
και στράγγιξα τον πρώτο στεναγμό

Θα κλείσω τα μάτια θ’ απλώσεις τα χέρια
να βρουν να φωλιάσουν λευκά περιστέρια
αγάπη μου πρώτη αγάπη μεγάλη
θα κλείσω τα μάτια κι όπου με βγάλει

Λαχτάρησα ζωή απ’ τη ζωή σου
λαχτάρησες το φως του αυγερινού
στα σύννεφα περπάτησα μαζί σου
κι ανοίξανε οι πόρτες τ’ ουρανού

Θα κλείσω τα μάτια θ’ απλώσεις τα χέρια
να βρουν να φωλιάσουν λευκά περιστέρια
αγάπη μου πρώτη αγάπη μεγάλη
θα κλείσω τα μάτια κι όπου με βγάλει

Popular Posts