Showing posts with label HDR. Show all posts
Showing posts with label HDR. Show all posts

Sunset Larissa Greece 2 - Samsung S7 Edge HDR UHD 4k




Sunset Larissa Greece 2
 2/10/2019
Samsung S7 Edge
 HDR  UHD 4k 3840 x 2160

Complete name : PHOTO\SAMSUNG\S7-SM-G935F\VID_20191002_183108.mp4
Format : MPEG-4
Format profile : Base Media / Version 2
Codec ID : mp42 (isom/mp42)
File size : 572 MiB
Duration : 1 min 3 s
Overall bit rate : 75.0 Mb/s
Encoded date : UTC 2019-10-02 15:32:12
xyz : +39.6342+022.4094/
com.android.version : 8.0.0

Video
ID : 1
Format : AVC
Format/Info : Advanced Video Codec
Format profile : High@L5.1
Format settings : 1 Ref Frames
Format settings, CABAC : No
Format settings, Reference frames : 1 frame
Format settings, GOP : M=1, N=48
Codec ID : avc1
Codec ID/Info : Advanced Video Coding
Duration : 1 min 3 s
Bit rate : 74.7 Mb/s
Width : 3 840 pixels
Height : 2 160 pixels
Display aspect ratio : 16:9
Frame rate mode : Variable
Frame rate : 23.910 FPS
Minimum frame rate : 7.997 FPS
Maximum frame rate : 24.364 FPS
Color space : YUV
Chroma subsampling : 4:2:0
Bit depth : 8 bits
Scan type : Progressive
Bits/(Pixel*Frame) : 0.377
Stream size : 570 MiB (100%)
Title : VideoHandle
Language : English
Encoded date : UTC 2019-10-02 15:32:12
Codec configuration box : avcC

Audio
ID : 2
Format : AAC LC
Format/Info : Advanced Audio Codec Low Complexity
Codec ID : mp4a-40-2
Duration : 1 min 3 s
Source duration : 1 min 3 s
Bit rate mode : Constant
Bit rate : 256 kb/s
Channel(s) : 2 channels
Channel layout : L R
Sampling rate : 44.1 kHz
Frame rate : 43.066 FPS (1024 SPF)
Compression mode : Lossy
Stream size : 1.93 MiB (0%)
Source stream size : 1.94 MiB (0%)
Title : SoundHandle
Language : English
Encoded date : UTC 2019-10-02 15:32:12

Sunset Larissa Greece 1 - Samsung S7 Edge SM-G935F HDR UHD 4k




Sunset Larissa Greece
 1/10/2019
Samsung S7 Edge SM-G935F
 HDR  UHD 4k 3840x2160

Complete name : samsung S7 EDGE\194447.mp4
Format : MPEG-4
Format profile : Base Media / Version 2
Codec ID : mp42 (isom/mp42)
File size : 569 MiB
Duration : 1 min 3 s
Overall bit rate : 75.2 Mb/s
Encoded date : UTC 2019-10-01 16:45:50
xyz : +39.6342+022.4094/
com.android.version : 8.0.0

Video
ID : 1
Format : AVC
Format/Info : Advanced Video Codec
Format profile : High@L5.1
Format settings : 1 Ref Frames
Format settings, CABAC : No
Format settings, Reference frames : 1 frame
Format settings, GOP : M=1, N=48
Codec ID : avc1
Codec ID/Info : Advanced Video Coding
Duration : 1 min 3 s
Bit rate : 74.9 Mb/s
Width : 3 840 pixels
Height : 2 160 pixels
Display aspect ratio : 16:9
Frame rate mode : Variable
Frame rate : 23.976 (23976/1000) FPS
Minimum frame rate : 12.000 FPS
Maximum frame rate : 24.265 FPS
Color space : YUV
Chroma subsampling : 4:2:0
Bit depth : 8 bits
Scan type : Progressive
Bits/(Pixel*Frame) : 0.377
Stream size : 567 MiB (100%)
Title : VideoHandle
Language : English
Encoded date : UTC 2019-10-01 16:45:50
Tagged date : UTC 2019-10-01 16:45:50
mdhd_Duration : 63448
Codec configuration box : avcC

Audio
ID : 2
Format : AAC LC
Format/Info : Advanced Audio Codec Low Complexity
Codec ID : mp4a-40-2
Duration : 1 min 3 s
Source duration : 1 min 3 s
Bit rate mode : Constant
Bit rate : 256 kb/s
Channel(s) : 2 channels
Channel layout : L R
Sampling rate : 44.1 kHz
Frame rate : 43.066 FPS (1024 SPF)
Compression mode : Lossy
Stream size : 1.92 MiB (0%)
Source stream size : 1.93 MiB (0%)
Title : SoundHandle
Language : English
Encoded date : UTC 2019-10-01 16:45:50

Genova città deserta Seconda parte rimaniamo a casa Μένουμε Σπίτι και εμείς

rimaniamo a casa Seconda parte Genova città deserta #StayHome Γένοβα δεύτερο μέρος Μένουμε Σπίτι και εμείς 2nd Part desert Genoa Geno...