Showing posts with label Sony HDR-CX190. Show all posts
Showing posts with label Sony HDR-CX190. Show all posts

Full Moon 21 March 2019 : Sony HDR-CX190E




Full Moon  21 March 2019 1080 50i
Camera Sony HDR-CX410vE  SteadyShot  Standard  - Manual Exposure 35% Zoom 30x

Complete name : E:\PRIVATE\AVCHD\BDMV\STREAM\00001.MTS
Format : BDAV
Format/Info : Blu-ray Video
File size : 97.0 MiB
Duration : 36 s 362 ms
Overall bit rate mode : Variable
Overall bit rate : 22.4 Mb/s
Maximum Overall bit rate : 24.0 Mb/s
Recorded date : 2019-03-21 22:20:57+02:00
Writing application : Sony HDR-CX190E

Video
ID : 4113 (0x1011)
Menu ID : 1 (0x1)
Format : AVC
Format/Info : Advanced Video Codec
Format profile : High@L4
Format settings : CABAC / 2 Ref Frames
Format settings, CABAC : Yes
Format settings, RefFrames : 2 frames
Format settings, GOP : M=2, N=13
Codec ID : 27
Duration : 36 s 320 ms
Bit rate mode : Variable
Bit rate : 21.2 Mb/s
Maximum bit rate : 22.0 Mb/s
Width : 1 920 pixels
Height : 1 080 pixels
Display aspect ratio : 16:9
Frame rate : 25.000 FPS
Color space : YUV
Chroma subsampling : 4:2:0
Bit depth : 8 bits
Scan type : Interlaced
Scan type, store method : Separated fields
Scan order : Top Field First
Bits/(Pixel*Frame) : 0.409
Stream size : 91.9 MiB (95%)
IrisFNumber : 3.400000

Audio
ID : 4352 (0x1100)
Menu ID : 1 (0x1)
Format : AC-3
Format/Info : Audio Coding 3
Commercial name : Dolby Digital
Codec ID : 129
Duration : 36 s 416 ms
Bit rate mode : Constant
Bit rate : 256 kb/s
Channel(s) : 2 channels
Channel layout : L R
Sampling rate : 48.0 kHz
Frame rate : 31.250 FPS (1536 SPF)
Bit depth : 16 bits
Compression mode : Lossy
Delay relative to video : -80 ms
Stream size : 1.11 MiB (1%)
Service kind : Complete Main

Text
ID : 4608 (0x1200)
Menu ID : 1 (0x1)
Format : PGS
Codec ID : 144
Duration : 35 s 815 ms
Delay relative to video : -80 ms

Genova città deserta Seconda parte rimaniamo a casa Μένουμε Σπίτι και εμείς

rimaniamo a casa Seconda parte Genova città deserta #StayHome Γένοβα δεύτερο μέρος Μένουμε Σπίτι και εμείς 2nd Part desert Genoa Geno...