Showing posts with label Samsung Gear 360 VR SM-C200 2016. Show all posts
Showing posts with label Samsung Gear 360 VR SM-C200 2016. Show all posts

2019 Christmas tree 🎄 Central square Larissa. Gear 360 sm-c200 1080 60p front camera stereo





2019 Christmas tree 🎄 Central square Larissa Gear 360 sm-c200 2016 1080 60p Complete name :SAM_102_0157.mp4 Format : MPEG-4 Format profile : Base Media / Version 2 Codec ID : mp42 (isom/mp42) File size : 981 MiB Duration : 2 min 16 s Overall bit rate mode : Variable Overall bit rate : 60.5 Mb/s Encoded date : UTC 2019-12-21 23:26:45 xyz : +39.6372+022.4150/ Video ID : 1 Format : AVC Format/Info : Advanced Video Codec Format profile : Baseline@L5 Format settings : 1 Ref Frames Format settings, CABAC : No Format settings, Reference frames : 1 frame Format settings, GOP : M=1, N=60 Codec ID : avc1 Codec ID/Info : Advanced Video Coding Duration : 2 min 16 s Bit rate : 60.3 Mb/s Width : 1 920 pixels Height : 1 080 pixels Display aspect ratio : 16:9 Frame rate mode : Variable Frame rate : 59.940 FPS Minimum frame rate : 59.920 FPS Maximum frame rate : 59.960 FPS Color space : YUV Chroma subsampling : 4:2:0 Bit depth : 8 bits Scan type : Progressive Bits/(Pixel*Frame) : 0.485 Stream size : 978 MiB (100%) Title : VideoHandle Language : English mdhd_Duration : 136136 Codec configuration box : avcC Audio ID : 2 Format : AAC LC Format/Info : Advanced Audio Codec Low Complexity Codec ID : mp4a-40-2 Duration : 2 min 16 s Source duration : 2 min 16 s Source_Duration_FirstFrame : 85 ms Bit rate mode : Variable Bit rate : 192 kb/s Channel(s) : 2 channels Channel layout : L R Sampling rate : 48.0 kHz Frame rate : 46.875 FPS (1024 SPF) Compression mode : Lossy Stream size : 3.09 MiB (0%) Source stream size : 3.09 MiB (0%) Title : SoundHandle Language : English mdhd_Duration : 136064

2019 Christmas tree 🎄 Central square Larissa. Gear 360 sm-c200 1440 30p front camera stereo



2019 Christmas tree 🎄 Central.square Larissa Gear 360 sm-c200 2016 1440 30p Complete name : SAM_102_0156.mp4 Format : MPEG-4 Format profile : Base Media / Version 2 Codec ID : mp42 (isom/mp42) File size : 905 MiB Duration : 2 min 5 s Overall bit rate mode : Variable Overall bit rate : 60.4 Mb/s Encoded date : UTC 2019-12-21 23:23:58 xyz : +39.6372+022.4150/ Video ID : 1 Format : AVC Format/Info : Advanced Video Codec Format profile : Baseline@L5 Format settings : 1 Ref Frames Format settings, CABAC : No Format settings, Reference frames : 1 frame Format settings, GOP : M=1, N=30 Codec ID : avc1 Codec ID/Info : Advanced Video Coding Duration : 2 min 5 s Bit rate : 60.2 Mb/s Width : 2 560 pixels Height : 1 440 pixels Display aspect ratio : 16:9 Frame rate mode : Constant Frame rate : 29.970 (30000/1001) FPS Color space : YUV Chroma subsampling : 4:2:0 Bit depth : 8 bits Scan type : Progressive Bits/(Pixel*Frame) : 0.545 Stream size : 903 MiB (100%) Title : VideoHandle Language : English Codec configuration box : avcC Audio ID : 2 Format : AAC LC Format/Info : Advanced Audio Codec Low Complexity Codec ID : mp4a-40-2 Duration : 2 min 5 s Source duration : 2 min 5 s Source_Duration_FirstFrame : 149 ms Bit rate mode : Variable Bit rate : 192 kb/s Channel(s) : 2 channels Channel layout : L R Sampling rate : 48.0 kHz Frame rate : 46.875 FPS (1024 SPF) Compression mode : Lossy Stream size : 2.85 MiB (0%) Source stream size : 2.85 MiB (0%) Title : SoundHandle Language : English mdhd_Duration : 125483

2019 Christmas tree 🎄 Central.square Larissa. 360VR Gear 360 sm-c200 4K




2019 Christmas tree 🎄 Central.square Larissa 360VR Gear 360 sm-c200 2016 4K


Popular Posts