Showing posts with label Sony SLT-A33. Show all posts
Showing posts with label Sony SLT-A33. Show all posts

Moon : Sony SLT-A33 + PHOTAX f/8 500mm f72 (mod) + SIGMA TELEMAC VARIO 2X-3X FHD 1080 25fps



Moon 11/OCT/2019
Camera : Sony SLT-A33
Lens: PHOTAX f/8 500mm f72 T2 - @ f/11 T2 modified removed internal group the two elements it seems to be 400mm
Teleconverter : SIGMA TELEMAC VARIO 2X 2.5X 3X  m42
SLT-A33 video test FHD 1080 25fps
1:8 f= 500mm


Complete name : STREAM\00229.MTS
Format : BDAV
Format/Info : Blu-ray Video
File size : 251 MiB
Duration : 2 min 3 s
Overall bit rate mode : Variable
Overall bit rate : 17.1 Mb/s
Maximum Overall bit rate : 18.0 Mb/s
Recorded date : 2019-10-12 01:08:47+02:00
Writing application : Sony SLT-A33

Video
ID : 4113 (0x1011)
Menu ID : 1 (0x1)
Format : AVC
Format/Info : Advanced Video Codec
Format profile : High@L4
Format settings : CABAC / 2 Ref Frames
Format settings, CABAC : Yes
Format settings, Reference frames : 2 frames
Format settings, GOP : M=2, N=13
Codec ID : 27
Duration : 2 min 3 s
Bit rate mode : Variable
Bit rate : 16.0 Mb/s
Width : 1 920 pixels
Height : 1 080 pixels
Display aspect ratio : 16:9
Frame rate : 25.000 FPS
Color space : YUV
Chroma subsampling : 4:2:0
Bit depth : 8 bits
Scan type : Interlaced
Scan type, store method : Separated fields
Scan order : Top Field First
Bits/(Pixel*Frame) : 0.309
Stream size : 237 MiB (94%)
IrisFNumber : 1.000000

Audio
ID : 4352 (0x1100)
Menu ID : 1 (0x1)
Format : AC-3
Format/Info : Audio Coding 3
Commercial name : Dolby Digital
Codec ID : 129
Duration : 2 min 3 s
Bit rate mode : Constant
Bit rate : 256 kb/s
Channel(s) : 2 channels
Channel layout : L R
Sampling rate : 48.0 kHz
Frame rate : 31.250 FPS (1536 SPF)
Compression mode : Lossy
Delay relative to video : -80 ms
Stream size : 3.76 MiB (1%)
Service kind : Complete Main

Text
ID : 4608 (0x1200)
Menu ID : 1 (0x1)
Format : PGS
Codec ID : 144
Duration : 2 min 2 s
Delay relative to video : -80 ms

Moon : Sony SLT-A33 + PHOTAX f/8 500mm f72 (mod) FHD 1080 25fps



Moon 12/OCT/2019
Camera : Sony SLT-A33
Lens: PHOTAX f/8 500mm f72 T2 - @ f/11 T2 modified removed internal group the two elements it seems to be 400mm
video test FHD 1080 25fps
1:8 f= 500mm


Complete name : STREAM\00225.MTS
Format : BDAV
Format/Info : Blu-ray Video
File size : 243 MiB
Duration : 1 min 59 s
Overall bit rate mode : Variable
Overall bit rate : 17.0 Mb/s
Maximum Overall bit rate : 18.0 Mb/s
Recorded date : 2019-10-12 00:58:05+02:00
Writing application : Sony SLT-A33

Video
ID : 4113 (0x1011)
Menu ID : 1 (0x1)
Format : AVC
Format/Info : Advanced Video Codec
Format profile : High@L4
Format settings : CABAC / 2 Ref Frames
Format settings, CABAC : Yes
Format settings, Reference frames : 2 frames
Format settings, GOP : M=2, N=13
Codec ID : 27
Duration : 1 min 59 s
Bit rate mode : Variable
Bit rate : 16.0 Mb/s
Width : 1 920 pixels
Height : 1 080 pixels
Display aspect ratio : 16:9
Frame rate : 25.000 FPS
Color space : YUV
Chroma subsampling : 4:2:0
Bit depth : 8 bits
Scan type : Interlaced
Scan type, store method : Separated fields
Scan order : Top Field First
Bits/(Pixel*Frame) : 0.309
Stream size : 229 MiB (94%)
IrisFNumber : 1.000000

Audio
ID : 4352 (0x1100)
Menu ID : 1 (0x1)
Format : AC-3
Format/Info : Audio Coding 3
Commercial name : Dolby Digital
Codec ID : 129
Duration : 1 min 59 s
Bit rate mode : Constant
Bit rate : 256 kb/s
Channel(s) : 2 channels
Channel layout : L R
Sampling rate : 48.0 kHz
Frame rate : 31.250 FPS (1536 SPF)
Compression mode : Lossy
Delay relative to video : -80 ms
Stream size : 3.65 MiB (2%)
Service kind : Complete Main

Text
ID : 4608 (0x1200)
Menu ID : 1 (0x1)
Format : PGS
Codec ID : 144
Duration : 1 min 59 s
Delay relative to video : -80 ms

Moon : Sony SLT-A33 + PARAGON f/8 500mm f72 + SIGMA TELEMAC VARIO 2X-3X FHD 1080 25fps



Moon 12/OCT/2019
Camera : Sony SLT-A33
Lens: PARAGON f/8 500mm f72 T2 - @ f/11 T2
Teleconverter : SIGMA TELEMAC VARIO 2X 2.5X 3X  m42
video test FHD 1080 25fps

Complete name : STREAM\00224.MTS
Format : BDAV
Format/Info : Blu-ray Video
File size : 495 MiB
Duration : 4 min 3 s
Overall bit rate mode : Variable
Overall bit rate : 17.1 Mb/s
Maximum Overall bit rate : 18.0 Mb/s
Recorded date : 2019-10-11 23:48:33+02:00
Writing application : Sony SLT-A33
1:8 f= 500mm


Video
ID : 4113 (0x1011)
Menu ID : 1 (0x1)
Format : AVC
Format/Info : Advanced Video Codec
Format profile : High@L4
Format settings : CABAC / 2 Ref Frames
Format settings, CABAC : Yes
Format settings, Reference frames : 2 frames
Format settings, GOP : M=2, N=13
Codec ID : 27
Duration : 4 min 3 s
Bit rate mode : Variable
Bit rate : 16.0 Mb/s
Width : 1 920 pixels
Height : 1 080 pixels
Display aspect ratio : 16:9
Frame rate : 25.000 FPS
Color space : YUV
Chroma subsampling : 4:2:0
Bit depth : 8 bits
Scan type : Interlaced
Scan type, store method : Separated fields
Scan order : Top Field First
Bits/(Pixel*Frame) : 0.309
Stream size : 467 MiB (94%)
IrisFNumber : 1.000000

Audio
ID : 4352 (0x1100)
Menu ID : 1 (0x1)
Format : AC-3
Format/Info : Audio Coding 3
Commercial name : Dolby Digital
Codec ID : 129
Duration : 4 min 3 s
Bit rate mode : Constant
Bit rate : 256 kb/s
Channel(s) : 2 channels
Channel layout : L R
Sampling rate : 48.0 kHz
Frame rate : 31.250 FPS (1536 SPF)
Compression mode : Lossy
Delay relative to video : -80 ms
Stream size : 7.43 MiB (2%)
Service kind : Complete Main

Text
ID : 4608 (0x1200)
Menu ID : 1 (0x1)
Format : PGS
Codec ID : 144
Duration : 4 min 2 s
Delay relative to video : -80 ms

Moon : Sony SLT-A33 + PARAGON f/8 500mm f72 FHD 1080 25fps



Moon 12/OCT/2019
Camera : Sony SLT-A33
Lens: PARAGON f/8 500mm f72 T2 - @ f/11 T2
video test FHD 1080 25fps

Complete name : STREAM\00223.MTS
Format : BDAV
Format/Info : Blu-ray Video
File size : 504 MiB
Duration : 4 min 8 s
Overall bit rate mode : Variable
Overall bit rate : 17.0 Mb/s
Maximum Overall bit rate : 18.0 Mb/s
Recorded date : 2019-10-11 23:40:39+02:00
Writing application : Sony SLT-A33

Video
ID : 4113 (0x1011)
Menu ID : 1 (0x1)
Format : AVC
Format/Info : Advanced Video Codec
Format profile : High@L4
Format settings : CABAC / 2 Ref Frames
Format settings, CABAC : Yes
Format settings, Reference frames : 2 frames
Format settings, GOP : M=2, N=13
Codec ID : 27
Duration : 4 min 7 s
Bit rate mode : Variable
Bit rate : 16.0 Mb/s
Width : 1 920 pixels
Height : 1 080 pixels
Display aspect ratio : 16:9
Frame rate : 25.000 FPS
Color space : YUV
Chroma subsampling : 4:2:0
Bit depth : 8 bits
Scan type : Interlaced
Scan type, store method : Separated fields
Scan order : Top Field First
Bits/(Pixel*Frame) : 0.309
Stream size : 476 MiB (94%)
IrisFNumber : 1.000000

Audio
ID : 4352 (0x1100)
Menu ID : 1 (0x1)
Format : AC-3
Format/Info : Audio Coding 3
Commercial name : Dolby Digital
Codec ID : 129
Duration : 4 min 8 s
Bit rate mode : Constant
Bit rate : 256 kb/s
Channel(s) : 2 channels
Channel layout : L R
Sampling rate : 48.0 kHz
Frame rate : 31.250 FPS (1536 SPF)
Compression mode : Lossy
Delay relative to video : -80 ms
Stream size : 7.57 MiB (2%)
Service kind : Complete Main

Text
ID : 4608 (0x1200)
Menu ID : 1 (0x1)
Format : PGS
Codec ID : 144
Duration : 4 min 7 s
Delay relative to video : -80 ms

Sony SLT-A33 + Sony SAL1855 #002 1080 25fps



Clouds
Camera :Sony SLT-A33
Lens : Sony 18-55mm f/3.5-5.6 SAM @ 35mm
Video test #002
FHD 1080 25fps

Complete name : AVCHD\BDMV\STREAM\00177.MTS
Format : BDAV
Format/Info : Blu-ray Video
File size : 125 MiB
Duration : 1 min 1 s
Overall bit rate mode : Variable
Overall bit rate : 17.0 Mb/s
Maximum Overall bit rate : 18.0 Mb/s
Recorded date : 2019-05-12 15:34:27+02:00
Writing application : Sony SLT-A33

Video
ID : 4113 (0x1011)
Menu ID : 1 (0x1)
Format : AVC
Format/Info : Advanced Video Codec
Format profile : High@L4
Format settings : CABAC / 2 Ref Frames
Format settings, CABAC : Yes
Format settings, Reference frames : 2 frames
Format settings, GOP : M=2, N=13
Codec ID : 27
Duration : 1 min 1 s
Bit rate mode : Variable
Bit rate : 16.0 Mb/s
Width : 1 920 pixels
Height : 1 080 pixels
Display aspect ratio : 16:9
Frame rate : 25.000 FPS
Color space : YUV
Chroma subsampling : 4:2:0
Bit depth : 8 bits
Scan type : Interlaced
Scan type, store method : Separated fields
Scan order : Top Field First
Bits/(Pixel*Frame) : 0.309
Stream size : 118 MiB (94%)
IrisFNumber : 5.600000

Audio
ID : 4352 (0x1100)
Menu ID : 1 (0x1)
Format : AC-3
Format/Info : Audio Coding 3
Commercial name : Dolby Digital
Codec ID : 129
Duration : 1 min 1 s
Bit rate mode : Constant
Bit rate : 256 kb/s
Channel(s) : 2 channels
Channel layout : L R
Sampling rate : 48.0 kHz
Frame rate : 31.250 FPS (1536 SPF)
Bit depth : 16 bits
Compression mode : Lossy
Delay relative to video : -80 ms
Stream size : 1.89 MiB (2%)
Service kind : Complete Main

Text
ID : 4608 (0x1200)
Menu ID : 1 (0x1)
Format : PGS
Codec ID : 144
Duration : 1 min 1 s
Delay relative to video : -80 ms

Half Moon Sony SLT-A33 + Sony SAL75300 #001 1080 25fps




Half Moon
Camera : Sony SLT-A33
Lens : Sony SAL75300 @ 300mm
video test  #001
FHD 1080 25fps

Complete name : AVCHD\BDMV\STREAM\00175.MTS
Format : BDAV
Format/Info : Blu-ray Video
File size : 126 MiB
Duration : 1 min 2 s
Overall bit rate mode : Variable
Overall bit rate : 17.0 Mb/s
Maximum Overall bit rate : 18.0 Mb/s
Recorded date : 2019-05-12 01:12:15+02:00
Writing application : Sony SLT-A33

Video
ID : 4113 (0x1011)
Menu ID : 1 (0x1)
Format : AVC
Format/Info : Advanced Video Codec
Format profile : High@L4
Format settings : CABAC / 2 Ref Frames
Format settings, CABAC : Yes
Format settings, Reference frames : 2 frames
Format settings, GOP : M=2, N=13
Codec ID : 27
Duration : 1 min 2 s
Bit rate mode : Variable
Bit rate : 16.0 Mb/s
Width : 1 920 pixels
Height : 1 080 pixels
Display aspect ratio : 16:9
Frame rate : 25.000 FPS
Color space : YUV
Chroma subsampling : 4:2:0
Bit depth : 8 bits
Scan type : Interlaced
Scan type, store method : Separated fields
Scan order : Top Field First
Bits/(Pixel*Frame) : 0.309
Stream size : 119 MiB (94%)
IrisFNumber : 5.600000

Audio
ID : 4352 (0x1100)
Menu ID : 1 (0x1)
Format : AC-3
Format/Info : Audio Coding 3
Commercial name : Dolby Digital
Codec ID : 129
Duration : 1 min 2 s
Bit rate mode : Constant
Bit rate : 256 kb/s
Channel(s) : 2 channels
Channel layout : L R
Sampling rate : 48.0 kHz
Frame rate : 31.250 FPS (1536 SPF)
Bit depth : 16 bits
Compression mode : Lossy
Delay relative to video : -80 ms
Stream size : 1.90 MiB (2%)
Service kind : Complete Main

Text
ID : 4608 (0x1200)
Menu ID : 1 (0x1)
Format : PGS
Codec ID : 144
Duration : 1 min 1 s
Delay relative to video : -80 ms

Genova città deserta Seconda parte rimaniamo a casa Μένουμε Σπίτι και εμείς

rimaniamo a casa Seconda parte Genova città deserta #StayHome Γένοβα δεύτερο μέρος Μένουμε Σπίτι και εμείς 2nd Part desert Genoa Geno...