Showing posts with label Sony DSC-H400. Show all posts
Showing posts with label Sony DSC-H400. Show all posts

Couds & Full Moon 18 May 2019 : Sony DSC-H400 63x ZOOM



Couds & Full Moon 
18 May 2019 720 30fps
Camera : Sony DSC-H400  SteadyShot  on  -  Zoom 63x

Complete name : C:\Users\user1\Desktop\DSC-H400\MAH00001.MP4
Format : MPEG-4
Format profile : Sony PSP
Codec ID : MSNV (MSNV/mp42/isom)
File size : 54.1 MiB
Duration : 48 s 549 ms
Overall bit rate mode : Variable
Overall bit rate : 9 343 kb/s
Encoded date : UTC 2019-05-18 03:02:08
Tagged date : UTC 2019-05-18 03:02:08

Video
ID : 1
Format : AVC
Format/Info : Advanced Video Codec
Format profile : Main@L4
Format settings : CABAC / 2 Ref Frames
Format settings, CABAC : Yes
Format settings, Reference frames : 2 frames
Format settings, GOP : M=1, N=8
Codec ID : avc1
Codec ID/Info : Advanced Video Coding
Duration : 48 s 549 ms
Bit rate mode : Variable
Bit rate : 9 210 kb/s
Maximum bit rate : 16.0 Mb/s
Width : 1 280 pixels
Height : 720 pixels
Display aspect ratio : 16:9
Frame rate mode : Constant
Frame rate : 29.970 (30000/1001) FPS
Color space : YUV
Chroma subsampling : 4:2:0
Bit depth : 8 bits
Scan type : Progressive
Bits/(Pixel*Frame) : 0.333
Stream size : 53.3 MiB (99%)
Encoded date : UTC 2019-05-18 03:02:08
Tagged date : UTC 2019-05-18 03:02:08
Codec configuration box : avcC

Audio
ID : 2
Format : AAC LC
Format/Info : Advanced Audio Codec Low Complexity
Codec ID : mp4a-40-2
Duration : 48 s 533 ms
Bit rate mode : Constant
Bit rate : 128 kb/s
Channel(s) : 2 channels
Channel layout : L R
Sampling rate : 48.0 kHz
Frame rate : 46.875 FPS (1024 SPF)
Compression mode : Lossy
Stream size : 758 KiB (1%)
Encoded date : UTC 2019-05-18 03:02:08
Tagged date : UTC 2019-05-18 03:02:08

Full Moon 21 March 2019 : Sony DSC-H400 63x ZOOM



Full Moon  21 March 2019 720 30fps
Camera : Sony DSC-H400  SteadyShot  on  -  Zoom 63x


Complete name :MAH00010.MP4
Format : MPEG-4
Format profile : Sony PSP
Codec ID : MSNV (MSNV/mp42/isom)
File size : 34.8 MiB
Duration : 32 s 32 ms
Overall bit rate mode : Variable
Overall bit rate : 9 102 kb/s
Encoded date : UTC 2019-03-22 04:11:34
Tagged date : UTC 2019-03-22 04:11:34

Video
ID : 1
Format : AVC
Format/Info : Advanced Video Codec
Format profile : Main@L4
Format settings : CABAC / 2 Ref Frames
Format settings, CABAC : Yes
Format settings, RefFrames : 2 frames
Format settings, GOP : M=1, N=8
Codec ID : avc1
Codec ID/Info : Advanced Video Coding
Duration : 32 s 32 ms
Bit rate mode : Variable
Bit rate : 8 969 kb/s
Maximum bit rate : 16.0 Mb/s
Width : 1 280 pixels
Height : 720 pixels
Display aspect ratio : 16:9
Frame rate mode : Constant
Frame rate : 29.970 (30000/1001) FPS
Color space : YUV
Chroma subsampling : 4:2:0
Bit depth : 8 bits
Scan type : Progressive
Bits/(Pixel*Frame) : 0.325
Stream size : 34.2 MiB (99%)
Encoded date : UTC 2019-03-22 04:11:34
Codec configuration box : avcC

Audio
ID : 2
Format : AAC LC
Format/Info : Advanced Audio Codec Low Complexity
Codec ID : mp4a-40-2
Duration : 32 s 21 ms
Bit rate mode : Constant
Bit rate : 128 kb/s
Channel(s) : 2 channels
Channel layout : L R
Sampling rate : 48.0 kHz
Frame rate : 46.875 FPS (1024 SPF)
Compression mode : Lossy
Stream size : 500 KiB (1%)
Encoded date : UTC 2019-03-22 04:11:34

Genova città deserta Seconda parte rimaniamo a casa Μένουμε Σπίτι και εμείς

rimaniamo a casa Seconda parte Genova città deserta #StayHome Γένοβα δεύτερο μέρος Μένουμε Σπίτι και εμείς 2nd Part desert Genoa Geno...