Showing posts with label Casio Exilim EX-ZR10. Show all posts
Showing posts with label Casio Exilim EX-ZR10. Show all posts

Clouds Casio EX-ZR10 1080 30p #003




Clouds
Casio EX-ZR10 1080 30p
Video test #003

Complete name : EX-ZR10\101CASIO\CIMG2790.MOV
Format : MPEG-4
Format profile : QuickTime
Codec ID : qt 2010.08 (qt /caqv)
File size : 107 MiB
Duration : 1 min 1 s
Overall bit rate : 14.7 Mb/s
Encoded date : UTC 2019-05-23 19:16:09
Tagged date : UTC 2019-05-23 19:16:09
Writing application : Casio Digital Camera

Video
ID : 1
Format : AVC
Format/Info : Advanced Video Codec
Format profile : Main@L3.1
Format settings : CABAC / 1 Ref Frames
Format settings, CABAC : Yes
Format settings, Reference frames : 1 frame
Format settings, GOP : M=1, N=30
Codec ID : avc1
Codec ID/Info : Advanced Video Coding
Duration : 1 min 1 s
Bit rate : 14.3 Mb/s
Width : 1 920 pixels
Height : 1 080 pixels
Display aspect ratio : 16:9
Frame rate mode : Constant
Frame rate : 29.970 (30000/1001) FPS
Color space : YUV
Chroma subsampling : 4:2:0
Bit depth : 8 bits
Scan type : Progressive
Bits/(Pixel*Frame) : 0.231
Stream size : 105 MiB (98%)
Language : English
Encoded date : UTC 2019-05-23 19:16:09
Tagged date : UTC 2019-05-23 19:16:09
Codec configuration box : avcC

Audio
ID : 2
Format : ADPCM
Codec ID : 11
Codec ID/Hint : Intel
Duration : 1 min 1 s
Bit rate mode : Constant
Bit rate : 375 kb/s
Channel(s) : 2 channels
Channel layout : L R
Sampling rate : 44.1 kHz
Stream size : 2.74 MiB (3%)
Language : English
Encoded date : UTC 2019-05-23 19:16:09

Clouds Casio EX-ZR10 1080 30p #002



Clouds
Casio EX-ZR10 1080 30p
Video test #002

Complete name : EX-ZR10\101CASIO\CIMG2773.MOV
Format : MPEG-4
Format profile : QuickTime
Codec ID : qt 2010.08 (qt /caqv)
File size : 109 MiB
Duration : 1 min 1 s
Overall bit rate : 14.7 Mb/s
Encoded date : UTC 2019-05-23 17:02:58
Tagged date : UTC 2019-05-23 17:02:58
Writing application : Casio Digital Camera

Video
ID : 1
Format : AVC
Format/Info : Advanced Video Codec
Format profile : Main@L3.1
Format settings : CABAC / 1 Ref Frames
Format settings, CABAC : Yes
Format settings, Reference frames : 1 frame
Format settings, GOP : M=1, N=30
Codec ID : avc1
Codec ID/Info : Advanced Video Coding
Duration : 1 min 1 s
Bit rate : 14.4 Mb/s
Width : 1 920 pixels
Height : 1 080 pixels
Display aspect ratio : 16:9
Frame rate mode : Constant
Frame rate : 29.970 (30000/1001) FPS
Color space : YUV
Chroma subsampling : 4:2:0
Bit depth : 8 bits
Scan type : Progressive
Bits/(Pixel*Frame) : 0.231
Stream size : 106 MiB (98%)
Language : English
Encoded date : UTC 2019-05-23 17:02:58
Tagged date : UTC 2019-05-23 17:02:58
Codec configuration box : avcC

Audio
ID : 2
Format : ADPCM
Codec ID : 11
Codec ID/Hint : Intel
Duration : 1 min 1 s
Bit rate mode : Constant
Bit rate : 375 kb/s
Channel(s) : 2 channels
Channel layout : L R
Sampling rate : 44.1 kHz
Stream size : 2.77 MiB (3%)
Language : English
Encoded date : UTC 2019-05-23 17:02:58
Tagged date : UTC 2019-05-23 17:02:58

Clouds Casio EX-ZR10 1080 30p #001



Clouds
Casio EX-ZR10 1080 30p
Video test #001

Complete name : EX-ZR10\101CASIO\CIMG2582.MOV
Format : MPEG-4
Format profile : QuickTime
Codec ID : qt 2010.08 (qt /caqv)
File size : 55.4 MiB
Duration : 31 s 632 ms
Overall bit rate : 14.7 Mb/s
Encoded date : UTC 2019-05-21 16:04:37
Tagged date : UTC 2019-05-21 16:04:37
Writing application : Casio Digital Camera

Video
ID : 1
Format : AVC
Format/Info : Advanced Video Codec
Format profile : Main@L3.1
Format settings : CABAC / 1 Ref Frames
Format settings, CABAC : Yes
Format settings, Reference frames : 1 frame
Format settings, GOP : M=1, N=30
Codec ID : avc1
Codec ID/Info : Advanced Video Coding
Duration : 31 s 632 ms
Bit rate : 14.3 Mb/s
Width : 1 920 pixels
Height : 1 080 pixels
Display aspect ratio : 16:9
Frame rate mode : Constant
Frame rate : 29.970 (30000/1001) FPS
Color space : YUV
Chroma subsampling : 4:2:0
Bit depth : 8 bits
Scan type : Progressive
Bits/(Pixel*Frame) : 0.231
Stream size : 54.1 MiB (98%)
Language : English
Encoded date : UTC 2019-05-21 16:04:37
Tagged date : UTC 2019-05-21 16:04:37
Codec configuration box : avcC

Audio
ID : 2
Format : ADPCM
Codec ID : 11
Codec ID/Hint : Intel
Duration : 31 s 610 ms
Bit rate mode : Constant
Bit rate : 375 kb/s
Channel(s) : 2 channels
Channel layout : L R
Sampling rate : 44.1 kHz
Stream size : 1.41 MiB (3%)
Language : English
Encoded date : UTC 2019-05-21 16:04:37
Tagged date : UTC 2019-05-21 16:04:37

Samsung SMT-C7140 Disassembled remove 320GB hdd




Model Name SMT-C7140
Receiver DVB-C
Input Connector Type IEC female in accordance with IEC 60169- 2
Input Impedance 75 Ω
Broadcasting Rx Frequency 47~870 Mhz
Broadcasting Rx Level -15~+15 dBm (average power)
Type of Broadcasting Rx Modulation Quadrature Amplitude Modulation
Channels Bandwidth 7 and 8 Mhz
Output Connector Type IEC male in accordance with IEC 60169- 2
Audio Output Port Stereo (left/right): 1 port
Digital Audio (SPDIF): 1 port
Video/Audio Concurrent Output Port - HDMI output: 1 port
- SCART: 2 port (TV/VCR)
USB USB 2.0 2 port (front/rear)
Rated Voltage, Frequency AC 230 V ±15%, 50 Hz
Rated Power Consumption Max. 30 W
Operating Temperature 0~40°C
Operating Humidity 20~80% (40°C)
Dimensions (mm) 350 (L) × 260 (W) × 35 (H)
Weight 2,495 g

RECORDED with Casio Exilim EX-ZR10 1920 x 1080 30fps 15Mb/s Auto mode iso 100


Genova città deserta Seconda parte rimaniamo a casa Μένουμε Σπίτι και εμείς

rimaniamo a casa Seconda parte Genova città deserta #StayHome Γένοβα δεύτερο μέρος Μένουμε Σπίτι και εμείς 2nd Part desert Genoa Geno...