Showing posts with label JVC Everio GZ-GX1. Show all posts
Showing posts with label JVC Everio GZ-GX1. Show all posts

JVC Everio GZ-GX1 FHD video test #005 1080 50p 28.0 Mb/s F/1.2


JVC Everio GZ-GX1 FHD video test #005 1080 50p 28.0 Mb/s F/1.2



JVC Everio GZ-GX1BEK
video test #005 
50fps FHD 28.0 Mb/s 
GZ-GX1 F/1.2 

Don’t forget to click the bell to turn on post notifications!

Nikolaos Instagram: https://www.instagram.com/sakellarisnikolaos/
Twitter: https://twitter.com/SakellarisNiko
Facebook: https://www.facebook.com/nikolaos.sakellaris/
Blog: https://video-photo-blog.blogspot.com/
 
Complete name : JVC\GZ-GX1\VIDEO\00004.MTS 
CompleteName_Last : JVC\GZ-GX1\VIDEO\00031.MTS 
Format : BDAV 
Format/Info : Blu-ray Video 
File size : 284 MiB 
Duration : 1 m 24 s 
Overall bit rate mode : Variable 
Maximum Overall bit rate : 28.0 Mb/s 
Recorded date : 2019-05-17 16:25:23+02:00 
Writing application : JVC  

Video 
ID : 4113 (0x1011) 
Menu ID : 1 (0x1) 
Format : AVC 
Format/Info : Advanced Video Codec 
Format profile : High@L4.2 
Format settings : CABAC / 2 Ref Frames 
Format settings, CABAC : Yes 
Format settings, RefFrames : 2 frames 
Format settings, GOP : M=3, N=12 
Codec ID : 27 
Duration : 10 s 760 ms 
Bit rate mode : Variable 
Bit rate : 2 083 Mb/s 
Maximum bit rate : 26.8 Mb/s 
Width : 1 920 pixels 
Height : 1 080 pixels 
Display aspect ratio : 16:9 
Frame rate : 50.000 FPS 
Color space : YUV 
Chroma subsampling : 4:2:0 
Bit depth : 8 bits 
Scan type : Progressive 
Bits/(Pixel*Frame) : 20.092 
Stream size : 2.61 GiB (96%) 

Audio 
ID : 4352 (0x1100) 
Menu ID : 1 (0x1) 
Format : AC-3 
Format/Info : Audio Coding 3 
Commercial name : Dolby Digital 
Codec ID : 129 
Duration : 10 s 816 ms 
Bit rate mode : Constant 
Bit rate : 256 kb/s 
Channel(s) : 2 channels 
Channel layout : L R 
Sampling rate : 48.0 kHz 
Frame rate : 31.250 FPS (1536 SPF) 
Bit depth : 16 bits 
Compression mode : Lossy 
Delay relative to video : -40 ms 
Stream size : 338 KiB (0%) 
Service kind : Complete Main 

Text 
ID : 4608 (0x1200) 
Menu ID : 1 (0x1) 
Format : PGS 
Codec ID : 144 
Duration : 10 s 535 ms 
Delay relative to video : -40 ms






JVC Everio GZ-GX1,Everio GZ-GX1,
GZ-GX1 video test,
Everio GZ-GX1 video test,JVC Everio GZ-GX1BEK,
GZ-GX1BEK,video test,50fps FHD 28.0 Mb/s,50fps FHD,
GZ-GX1 F/1.2,JVC Everio GZ-GX1 FHD video test 50p,
JVC Everio GZ-GX1 FHD video test


After Sunset Clouds TimeLapse : JVC Everio GZ-GX1 video test #004 50fps FHD





TimeLapse : JVC Everio GZ-GX1 video test #003 50fps FHD




Night TimeLapse
JVC Everio GZ-GX1BEK
video test #001
50fps FHD 28.0 Mb/s
GZ-GX1 F/1.2

Complete name : JVC\GZ-GX1\VIDEO\00021.MTS
Format : BDAV
Format/Info : Blu-ray Video
File size : 14.1 MiB
Duration : 4 s 569 ms
Overall bit rate mode : Variable
Overall bit rate : 25.9 Mb/s
Maximum Overall bit rate : 28.0 Mb/s
Recorded date : 2019-05-17 21:39:33+02:00
Writing application : JVC

Video
ID : 4113 (0x1011)
Menu ID : 1 (0x1)
Format : AVC
Format/Info : Advanced Video Codec
Format profile : High@L4.2
Format settings : CABAC / 2 Ref Frames
Format settings, CABAC : Yes
Format settings, Reference frames : 2 frames
Format settings, GOP : M=3, N=12
Codec ID : 27
Duration : 4 s 520 ms
Bit rate mode : Variable
Bit rate : 24.6 Mb/s
Maximum bit rate : 26.8 Mb/s
Width : 1 920 pixels
Height : 1 080 pixels
Display aspect ratio : 16:9
Frame rate : 50.000 FPS
Color space : YUV
Chroma subsampling : 4:2:0
Bit depth : 8 bits
Scan type : Progressive
Bits/(Pixel*Frame) : 0.237
Stream size : 13.2 MiB (94%)

Audio
ID : 4352 (0x1100)
Menu ID : 1 (0x1)
Format : AC-3
Format/Info : Audio Coding 3
Commercial name : Dolby Digital
Codec ID : 129
Duration : 4 s 576 ms
Bit rate mode : Constant
Bit rate : 256 kb/s
Channel(s) : 2 channels
Channel layout : L R
Sampling rate : 48.0 kHz
Frame rate : 31.250 FPS (1536 SPF)
Compression mode : Lossy
Delay relative to video : -40 ms
Stream size : 143 KiB (1%)
Service kind : Complete Main

Text
ID : 4608 (0x1200)
Menu ID : 1 (0x1)
Format : PGS
Codec ID : 144
Duration : 4 s 295 ms
Delay relative to video : -40 ms
TimeLapse Everio GZ-GX1

Clouds : JVC Everio GZ-GX1 video test #001 50fps FHD




Clouds
JVC Everio GZ-GX1BEK
video test #001
50fps FHD 28.0 Mb/s
F/1.2

Complete name : AVCHD\BDMV\STREAM\00012.MTS
Format : BDAV
Format/Info : Blu-ray Video
File size : 204 MiB
Duration : 1 min 2 s
Overall bit rate mode : Variable
Overall bit rate : 27.6 Mb/s
Maximum Overall bit rate : 28.0 Mb/s
Recorded date : 2019-05-17 17:15:24+02:00
Writing application : JVC 

Video
ID : 4113 (0x1011)
Menu ID : 1 (0x1)
Format : AVC
Format/Info : Advanced Video Codec
Format profile : High@L4.2
Format settings : CABAC / 2 Ref Frames
Format settings, CABAC : Yes
Format settings, Reference frames : 2 frames
Format settings, GOP : M=3, N=12
Codec ID : 27
Duration : 1 min 2 s
Bit rate mode : Variable
Bit rate : 26.3 Mb/s
Maximum bit rate : 26.8 Mb/s
Width : 1 920 pixels
Height : 1 080 pixels
Display aspect ratio : 16:9
Frame rate : 50.000 FPS
Color space : YUV
Chroma subsampling : 4:2:0
Bit depth : 8 bits
Scan type : Progressive
Bits/(Pixel*Frame) : 0.253
Stream size : 195 MiB (95%)

Audio
ID : 4352 (0x1100)
Menu ID : 1 (0x1)
Format : AC-3
Format/Info : Audio Coding 3
Commercial name : Dolby Digital
Codec ID : 129
Duration : 1 min 2 s
Bit rate mode : Constant
Bit rate : 256 kb/s
Channel(s) : 2 channels
Channel layout : L R
Sampling rate : 48.0 kHz
Frame rate : 31.250 FPS (1536 SPF)
Bit depth : 16 bits
Compression mode : Lossy
Delay relative to video : -40 ms
Stream size : 1.90 MiB (1%)
Service kind : Complete Main

Text
ID : 4608 (0x1200)
Menu ID : 1 (0x1)
Format : PGS
Codec ID : 144
Duration : 1 min 1 s
Delay relative to video : -40 ms

Popular Posts