Showing posts with label Train. Show all posts
Showing posts with label Train. Show all posts

Larissa Railway Station : Sony SLT-A58 video test #001 1080 50i 24.0 Mb/s



Larissa station  train Larissa Thessaloniki
Sony SLT-A58 video test #001 1080 50i 24.0 Mb/s
20 megapixels SteadyShot
Lens mount : Sony/Minolta Alpha

Complete name : SONY\SLT-A58\DCIM\STREAM\00051.MTS
Format : BDAV
Format/Info : Blu-ray Video
File size : 78.2 MiB
Duration : 29 s 614 ms
Overall bit rate mode : Variable
Overall bit rate : 22.1 Mb/s
Maximum Overall bit rate : 24.0 Mb/s
Recorded date : 2018-11-10 17:46:17+03:00
Writing application : Sony SLT-A58

Video
ID : 4113 (0x1011)
Menu ID : 1 (0x1)
Format : AVC
Format/Info : Advanced Video Codec
Format profile : High@L4
Format settings : CABAC / 2 Ref Frames
Format settings, CABAC : Yes
Format settings, RefFrames : 2 frames
Format settings, picture structure : Frame
Codec ID : 27
Duration : 29 s 640 ms
Bit rate mode : Variable
Bit rate : 21.0 Mb/s
Maximum bit rate : 22.0 Mb/s
Width : 1 920 pixels
Height : 1 080 pixels
Display aspect ratio : 16:9
Frame rate : 25.000 FPS
Color space : YUV
Chroma subsampling : 4:2:0
Bit depth : 8 bits
Scan type : Interlaced
Scan type, store method : Interleaved fields
Scan order : Top Field First
Bits/(Pixel*Frame) : 0.405
Stream size : 74.2 MiB (95%)
IrisFNumber : 0.000000

Audio
ID : 4352 (0x1100)
Menu ID : 1 (0x1)
Format : AC-3
Format/Info : Audio Coding 3
Commercial name : Dolby Digital
Codec ID : 129
Duration : 29 s 664 ms
Bit rate mode : Constant
Bit rate : 256 kb/s
Channel(s) : 2 channels
Channel layout : L R
Sampling rate : 48.0 kHz
Frame rate : 31.250 FPS (1536 SPF)
Bit depth : 16 bits
Compression mode : Lossy
Stream size : 927 KiB (1%)
Service kind : Complete Main

Text
ID : 4608 (0x1200)
Menu ID : 1 (0x1)
Format : PGS
Codec ID : 144
Duration : 29 s 55 ms

Genova città deserta Seconda parte rimaniamo a casa Μένουμε Σπίτι και εμείς

rimaniamo a casa Seconda parte Genova città deserta #StayHome Γένοβα δεύτερο μέρος Μένουμε Σπίτι και εμείς 2nd Part desert Genoa Geno...