Showing posts with label Fujifilm FinePix F660EXR. Show all posts
Showing posts with label Fujifilm FinePix F660EXR. Show all posts

2020 Spring is here!!! Fujifilm FinePix F660EXR 16.0 MP 15x 360mm zoom video test 1080


Spring is here!!!
 Fujifilm FinePix F660EXR 16.0 MP
 Fujinon 15x optical zoom f=4.4 - 66mm, equivalent to 24 - 360mm on a 35mm F/5.3  with ND filter
Movie recording 
1920 x 1080 pixels /  (30 frames / sec.) with stereo sound.
Optical zoom function can be used.

Complete name : DCIM\117_FUJI\DSCF7724.MOV 
Format : MPEG-4 
Format profile : QuickTime 
Codec ID : qt 0000.00 (qt ) 
File size : 114 MiB 
Duration : 1 min 7 s 
Overall bit rate : 14.2 Mb/s 
Movie_More : FUJIFILM DIGITAL CAMERA FinePix F660EXR 
Encoded date : UTC 2019-03-12 16:32:06 
Origin : Digital Camera 

Video 
ID : 1 
Format : AVC 
Format/Info : Advanced Video Codec 
Format profile : High@L4 
Format settings : 1 Ref Frames 
Format settings, CABAC : No 
Format settings, Reference frames : 1 frame 
Format settings, GOP : M=1, N=15 
Codec ID : avc1 
Codec ID/Info : Advanced Video Coding 
Duration : 1 min 7 s 
Bit rate : 12.6 Mb/s 
Width : 1 920 pixels 
Height : 1 080 pixels 
Display aspect ratio : 16:9 
Frame rate mode : Constant 
Frame rate : 29.970 (30000/1001) FPS 
Color space : YUV 
Chroma subsampling : 4:2:0 
Bit depth : 8 bits 
Scan type : Progressive 
Bits/(Pixel*Frame) : 0.202 
Stream size : 101 MiB (88%) 
Language : English 
Codec configuration box : avcC 

Audio 
ID : 2 
Format : PCM 
Format settings : Little / Signed 
Codec ID : sowt 
Duration : 1 min 7 s 
Bit rate mode : Constant 
Bit rate : 1 536 kb/s 
Channel(s) : 2 channels 
Channel layout : L R 
Sampling rate : 48.0 kHz 
Bit depth : 16 bits 
Stream size : 6.14 MiB (5%) 
Language : English


Genova città deserta Seconda parte rimaniamo a casa Μένουμε Σπίτι και εμείς

rimaniamo a casa Seconda parte Genova città deserta #StayHome Γένοβα δεύτερο μέρος Μένουμε Σπίτι και εμείς 2nd Part desert Genoa Geno...