Showing posts with label RMC Tokina f/6.3 400mm f72. Show all posts
Showing posts with label RMC Tokina f/6.3 400mm f72. Show all posts

Full Moon : Panasonic Lumix DMC-GX80 + RMC Tokina f/6.3 400mm f72 4k UHD 25fps




Full Moon 13/OCT/2019
Camera : Panasonic Lumix DMC-GX80
Lens: RMC Tokina f/6.3 400mm f72 FD Canon @ f/11
video test 4k UHD  3840 x 2160 25fps
RMC Tokina 400mm f/6.3

Complete name : DCIM\110_PANA\P1100385.MP4
Format : MPEG-4
Format profile : Base Media / Version 2
Codec ID : mp42 (mp42/avc1)
File size : 1.49 GiB
Duration : 5 min 7 s
Overall bit rate mode : Variable
Overall bit rate : 41.6 Mb/s
Encoded date : UTC 2019-10-13 03:03:02
PANA : Ê

Video
ID : 1
Format : AVC
Format/Info : Advanced Video Codec
Format profile : High@L5.1
Format settings : CABAC / 2 Ref Frames
Format settings, CABAC : Yes
Format settings, Reference frames : 2 frames
Codec ID : avc1
Codec ID/Info : Advanced Video Coding
Duration : 5 min 7 s
Bit rate mode : Variable
Bit rate : 41.5 Mb/s
Maximum bit rate : 106 Mb/s
Width : 3 840 pixels
Height : 2 160 pixels
Display aspect ratio : 16:9
Frame rate mode : Constant
Frame rate : 25.000 FPS
Color space : YUV
Chroma subsampling : 4:2:0
Bit depth : 8 bits
Scan type : Progressive
Bits/(Pixel*Frame) : 0.200
Stream size : 1.49 GiB (100%)
Encoded date : UTC 2019-10-13 03:03:02
Color range : Limited
Color primaries : BT.709
Transfer characteristics : BT.709
Matrix coefficients : BT.709
Codec configuration box : avcC

Audio
ID : 2
Format : AAC LC
Format/Info : Advanced Audio Codec Low Complexity
Codec ID : mp4a-40-2
Duration : 5 min 7 s
Source duration : 5 min 7 s
Bit rate mode : Constant
Bit rate : 128 kb/s
Channel(s) : 2 channels
Channel layout : L R
Sampling rate : 48.0 kHz
Frame rate : 46.875 FPS (1024 SPF)
Compression mode : Lossy
Stream size : 4.60 MiB (0%)
Source stream size : 4.60 MiB (0%)
Encoded date : UTC 2019-10-13 03:03:02

Genova città deserta Seconda parte rimaniamo a casa Μένουμε Σπίτι και εμείς

rimaniamo a casa Seconda parte Genova città deserta #StayHome Γένοβα δεύτερο μέρος Μένουμε Σπίτι και εμείς 2nd Part desert Genoa Geno...