Showing posts with label Gopro. Show all posts
Showing posts with label Gopro. Show all posts

Genova città deserta Seconda parte rimaniamo a casa Μένουμε Σπίτι και εμείς



rimaniamo a casa Seconda parte Genova città deserta #StayHome
Γένοβα δεύτερο μέρος Μένουμε Σπίτι και εμείς 
2nd Part desert Genoa
Genova deserta
4k upgrade from FHD 1080
genoa desert city

Don’t forget to click the bell to turn on post notifications!

Nikolaos Instagram: https://www.instagram.com/sakellarisnikolaos/
Twitter: https://twitter.com/SakellarisNiko
Facebook: https://www.facebook.com/nikolaos.sakellaris/
Blog: https://video-photo-blog.blogspot.com/


Genova città deserta Prima parte rimaniamo a casa Μένουμε Σπίτι και εμείς



rimaniamo a casa Prima parte Genova città deserta #StayHome
Γένοβα πρώτο μέρος Μένουμε Σπίτι και εμείς 
1st Part desert Genoa
Genova deserta
4k upgrade from FHD 1080
genova city italy  4k
genoa desert city

Don’t forget to click the bell to turn on post notifications!

Nikolaos Instagram: https://www.instagram.com/sakellarisnikolaos/
Twitter: https://twitter.com/SakellarisNiko
Facebook: https://www.facebook.com/nikolaos.sakellaris/
Blog: https://video-photo-blog.blogspot.com/

I


Nei Pori Sunset Gopro Hero CHDHA-301 1080 25fps




Nei Pori Sunset July ,7 2019
  • Gopro Hero CHDHA-301
  •  1080 25fps

Complete name : GOPRO\CHDHA-301\Video\GOPR0560.MP4
Format : MPEG-4
Format profile : JVT
Codec ID : avc1 (avc1/isom)
File size : 102 MiB
Duration : 55 s 680 ms
Overall bit rate : 15.4 Mb/s
Encoded date : UTC 2019-07-06 21:00:18
Tagged date : UTC 2019-07-06 21:00:18
AMBA :

Video
ID : 1
Format : AVC
Format/Info : Advanced Video Codec
Format profile : Main@L4
Format settings : CABAC / 2 Ref Frames
Format settings, CABAC : Yes
Format settings, Reference frames : 2 frames
Format settings, GOP : M=3, N=15
Codec ID : avc1
Codec ID/Info : Advanced Video Coding
Duration : 55 s 680 ms
Bit rate mode : Constant
Bit rate : 14.6 Mb/s
Width : 1 920 pixels
Height : 1 080 pixels
Display aspect ratio : 16:9
Frame rate mode : Constant
Frame rate : 25.000 FPS
Color space : YUV
Chroma subsampling : 4:2:0
Bit depth : 8 bits
Scan type : Progressive
Bits/(Pixel*Frame) : 0.282
Stream size : 100 MiB (98%)
Title : Ambarella AVC
Language : English
Encoded date : UTC 2019-07-06 21:00:18
Tagged date : UTC 2019-07-06 21:00:18
Color range : Full
Codec configuration box : avcC

Audio
ID : 2
Format : AAC LC
Format/Info : Advanced Audio Codec Low Complexity
Codec ID : mp4a-40-2
Duration : 55 s 680 ms
Bit rate mode : Constant
Bit rate : 128 kb/s
Channel(s) : 2 channels
Channel layout : L R
Sampling rate : 48.0 kHz
Frame rate : 46.875 FPS (1024 SPF)
Compression mode : Lossy
Stream size : 870 KiB (1%)
Title : Ambarella AAC
Language : English
Encoded date : UTC 2019-07-06 21:00:18
Tagged date : UTC 2019-07-06 21:00:18

Other
ID : 3
Type : Time code
Format : QuickTime TC
Duration : 55 s 680 ms
Frame rate : 25.000 FPS
Time code of first frame : 21:00:17:00
Time code, striped : Yes
Language : English
Encoded date : UTC 2019-07-06 21:00:18

Genova città deserta Seconda parte rimaniamo a casa Μένουμε Σπίτι και εμείς

rimaniamo a casa Seconda parte Genova città deserta #StayHome Γένοβα δεύτερο μέρος Μένουμε Σπίτι και εμείς 2nd Part desert Genoa Geno...