Showing posts with label Ιερός Ναός Αγίου Νικολάου Λάρισα. Show all posts
Showing posts with label Ιερός Ναός Αγίου Νικολάου Λάρισα. Show all posts

Clouds Casio EX-ZR10 1080 30p #001



Clouds
Casio EX-ZR10 1080 30p
Video test #001

Complete name : EX-ZR10\101CASIO\CIMG2582.MOV
Format : MPEG-4
Format profile : QuickTime
Codec ID : qt 2010.08 (qt /caqv)
File size : 55.4 MiB
Duration : 31 s 632 ms
Overall bit rate : 14.7 Mb/s
Encoded date : UTC 2019-05-21 16:04:37
Tagged date : UTC 2019-05-21 16:04:37
Writing application : Casio Digital Camera

Video
ID : 1
Format : AVC
Format/Info : Advanced Video Codec
Format profile : Main@L3.1
Format settings : CABAC / 1 Ref Frames
Format settings, CABAC : Yes
Format settings, Reference frames : 1 frame
Format settings, GOP : M=1, N=30
Codec ID : avc1
Codec ID/Info : Advanced Video Coding
Duration : 31 s 632 ms
Bit rate : 14.3 Mb/s
Width : 1 920 pixels
Height : 1 080 pixels
Display aspect ratio : 16:9
Frame rate mode : Constant
Frame rate : 29.970 (30000/1001) FPS
Color space : YUV
Chroma subsampling : 4:2:0
Bit depth : 8 bits
Scan type : Progressive
Bits/(Pixel*Frame) : 0.231
Stream size : 54.1 MiB (98%)
Language : English
Encoded date : UTC 2019-05-21 16:04:37
Tagged date : UTC 2019-05-21 16:04:37
Codec configuration box : avcC

Audio
ID : 2
Format : ADPCM
Codec ID : 11
Codec ID/Hint : Intel
Duration : 31 s 610 ms
Bit rate mode : Constant
Bit rate : 375 kb/s
Channel(s) : 2 channels
Channel layout : L R
Sampling rate : 44.1 kHz
Stream size : 1.41 MiB (3%)
Language : English
Encoded date : UTC 2019-05-21 16:04:37
Tagged date : UTC 2019-05-21 16:04:37

Genova città deserta Seconda parte rimaniamo a casa Μένουμε Σπίτι και εμείς

rimaniamo a casa Seconda parte Genova città deserta #StayHome Γένοβα δεύτερο μέρος Μένουμε Σπίτι και εμείς 2nd Part desert Genoa Geno...