Showing posts with label Olympus. Show all posts
Showing posts with label Olympus. Show all posts

Creative Style Sunset Sony NEX-5R with OLYMPUS OM-SYSTEM ZUIKO MC AUTO-S 1:1,8 F=50mm OM to NEX




Creative Style  Crtv-S Sunset 
Filming Location: Larissa , Greece.
Camera : Sony NEX 5R 16.1 Mp 
Crop factor 1.5
Lens : OLYMPUS OM-SYSTEM ZUIKO MC AUTO-S 1:1.8 F=50mm @1.8
Mode : A  ISO 100 EV 0,0  (1/800 -1/4000) creative style Sunset  0 0 0
Video Stabilization OFF Video 1920x1080 @ 50fps
OM adapted to NEX 

Don’t forget to Subscribe and  click the bell to turn on post notifications!

Nikolaos Instagram: https://www.instagram.com/sakellarisnikolaos/
Twitter: https://twitter.com/SakellarisNiko
Facebook: https://www.facebook.com/nikolaos.sakellaris/
Blog: https://video-photo-blog.blogspot.com/
 
Complete name : AVCHD\BDMV\STREAM\00104.MTS 
Format : BDAV 
Format/Info : Blu-ray Video 
File size : 211 MiB 
Duration : 1 min 6 s 
Overall bit rate mode : Variable 
Overall bit rate : 26.5 Mb/s 
Maximum Overall bit rate : 28.0 Mb/s 
Recorded date : 2020-03-06 18:11:19+02:00 
Writing application : Sony NEX-5R 

Video 
ID : 4113 (0x1011) 
Menu ID : 1 (0x1) 
Format : AVC 
Format/Info : Advanced Video Codec 
Format profile : High@L4.2 
Format settings : CABAC / 2 Ref Frames 
Format settings, CABAC : Yes 
Format settings, Reference frames : 2 frames 
Format settings, GOP : M=1, N=12 
Codec ID : 27 
Duration : 1 min 6 s 
Bit rate mode : Variable 
Bit rate : 25.2 Mb/s 
Maximum bit rate : 26.0 Mb/s 
Width : 1 920 pixels 
Height : 1 080 pixels 
Display aspect ratio : 16:9 
Frame rate : 50.000 FPS 
Color space : YUV 
Chroma subsampling : 4:2:0 
Bit depth : 8 bits 
Scan type : Progressive 
Bits/(Pixel*Frame) : 0.243 
Stream size : 200 MiB (95%) 
IrisFNumber : 0.000000 

Audio 
ID : 4352 (0x1100) 
Menu ID : 1 (0x1) 
Format : AC-3 
Format/Info : Audio Coding 3 
Commercial name : Dolby Digital 
Codec ID : 129 
Duration : 1 min 6 s 
Bit rate mode : Constant 
Bit rate : 256 kb/s 
Channel(s) : 2 channels 
Channel layout : L R 
Sampling rate : 48.0 kHz 
Frame rate : 31.250 FPS (1536 SPF) 
Compression mode : Lossy 
Stream size : 2.04 MiB (1%) 
Service kind : Complete Main 

Text 
ID : 4608 (0x1200) 
Menu ID : 1 (0x1) 
Format : PGS 
Codec ID : 144 
Duration : 1 min 6 s

Sony NEX-5R with AUTO CHINON 1:1.9 50 mm pk to nex d-range DRO Lv5 creative style Portrait -3-3-3



Windy day with nice silver clouds over the Olympus. mountain. Filming Location: Larissa , Greece. Camera : Sony NEX 5R 16.1 Mp Crop factor 1.5 Lens : AUTO CHINON 1:1.9 50 mm Ø49 pk @ f/4 75mm equivalent 35mm Mode : A ISO 100 EV 0,0 (1/1000 -1/4000) d-range DRO Lv5 creative style Portrait -3-3-3 Video Stabilization OFF Video 1920x1080 @ 50fps Pk adapted to NEX Don’t forget to click the bell to turn on post notifications! Nikolaos Instagram: https://www.instagram.com/sakellarisnikolaos/ Twitter: https://twitter.com/SakellarisNiko Facebook: https://www.facebook.com/nikolaos.sakellaris/ Blog: https://video-photo-blog.blogspot.com/ Complete name : AVCHD\BDMV\STREAM\00068.MTS Format : BDAV Format/Info : Blu-ray Video File size : 325 MiB Duration : 1 min 42 s Overall bit rate mode : Variable Overall bit rate : 26.5 Mb/s Maximum Overall bit rate : 28.0 Mb/s Recorded date : 2020-02-27 17:37:12+02:00 Writing application : Sony NEX-5R Video ID : 4113 (0x1011) Menu ID : 1 (0x1) Format : AVC Format/Info : Advanced Video Codec Format profile : High@L4.2 Format settings : CABAC / 2 Ref Frames Format settings, CABAC : Yes Format settings, Reference frames : 2 frames Format settings, GOP : M=1, N=12 Codec ID : 27 Duration : 1 min 42 s Bit rate mode : Variable Bit rate : 25.2 Mb/s Maximum bit rate : 26.0 Mb/s Width : 1 920 pixels Height : 1 080 pixels Display aspect ratio : 16:9 Frame rate : 50.000 FPS Color space : YUV Chroma subsampling : 4:2:0 Bit depth : 8 bits Scan type : Progressive Bits/(Pixel*Frame) : 0.243 Stream size : 309 MiB (95%) IrisFNumber : 0.000000

Sunset birds Olympus PEN E-PL3 with Helios-44M-7 58mm f/2 Ø52 M42 to m4/3 @ f/4




Sunset birds Camera : Olympus PEN E-PL3 in mode A auto iso 400-800 limit stabilazer IS off is defective one motor focus to the clouds Lens: Helios-44M-7 58mm f/2 Ø52 M42 - @ f/4 video test 1920 1080 30p Don’t forget to click the bell to turn on post notifications! Nikolaos Instagram: https://www.instagram.com/sakellarisnikolaos/ Twitter: https://twitter.com/SakellarisNiko Facebook: https://www.facebook.com/nikolaos.sakellaris/ Blog: https://video-photo-blog.blogspot.com/ 1:2 f= 58mm with monopod K&F Concept from KF2624L tripod KF09.050 (1st time used) Complete name : AVCHD\BDMV\STREAM\00007.MTS Format : BDAV Format/Info : Blu-ray Video File size : 93.7 MiB Duration : 1 min 21 s Overall bit rate mode : Variable Overall bit rate : 9 618 kb/s Maximum Overall bit rate : 24.0 Mb/s Video ID : 4113 (0x1011) Menu ID : 1 (0x1) Format : AVC Format/Info : Advanced Video Codec Format profile : High@L4 Format settings : 2 Ref Frames Format settings, CABAC : No Format settings, Reference frames : 2 frames Format settings, GOP : M=1, N=15 Codec ID : 27 Duration : 1 min 21 s Bit rate mode : Variable Bit rate : 9 036 kb/s Maximum bit rate : 22.5 Mb/s Width : 1 920 pixels Height : 1 080 pixels Display aspect ratio : 16:9 Frame rate : 29.970 (30000/1001) FPS Color space : YUV Chroma subsampling : 4:2:0 Bit depth : 8 bits Scan type : Interlaced Scan type, store method : Separated fields Scan order : Top Field First Bits/(Pixel*Frame) : 0.145 Stream size : 87.9 MiB (94%) Audio ID : 4352 (0x1100) Menu ID : 1 (0x1) Format : AC-3 Format/Info : Audio Coding 3 Commercial name : Dolby Digital Codec ID : 129 Duration : 1 min 21 s Bit rate mode : Constant Bit rate : 192 kb/s Channel(s) : 2 channels Channel layout : L R Sampling rate : 48.0 kHz Frame rate : 31.250 FPS (1536 SPF) Compression mode : Lossy Stream size : 1.87 MiB (2%) Service kind : Complete Main

2. Clouds : Olympus OM-D E-M10 FHD 30FPS




Clouds   FHD
  • Camera Olympus OM-D E-M10 A Mode 200iso
  • Lens

Complete name : PHOTO\OLYMPUS\OM-D E-M10\video\P4140965.MOV
Format : MPEG-4
Format profile : QuickTime
Codec ID : qt 2011.07 (qt )
File size : 52.6 MiB
Duration : 30 s 30 ms
Overall bit rate : 14.7 Mb/s
Encoded date : UTC 2019-04-14 13:57:15
Tagged date : UTC 2019-04-14 13:57:15
TAGS : 8"R

Video
ID : 1
Format : AVC
Format/Info : Advanced Video Codec
Format profile : High@L4.1
Format settings : 2 Ref Frames
Format settings, CABAC : No
Format settings, Reference frames : 2 frames
Format settings, GOP : M=3, N=8
Codec ID : avc1
Codec ID/Info : Advanced Video Coding
Duration : 30 s 30 ms
Bit rate : 12.9 Mb/s
Width : 1 920 pixels
Height : 1 080 pixels
Display aspect ratio : 16:9
Frame rate mode : Constant
Frame rate : 29.970 (30000/1001) FPS
Color space : YUV
Chroma subsampling : 4:2:0
Bit depth : 8 bits
Scan type : Progressive
Bits/(Pixel*Frame) : 0.208
Stream size : 46.3 MiB (88%)
Language : Japanese
Encoded date : UTC 2019-04-14 13:57:15
Tagged date : UTC 2019-04-14 13:57:15
Color range : Full
Color primaries : BT.601 NTSC
Transfer characteristics : BT.601
Matrix coefficients : BT.601
Menus : 0
Codec configuration box : avcC

Audio
ID : 2
Format : PCM
Format settings : Little / Signed
Codec ID : sowt
Duration : 30 s 30 ms
Source duration : 30 s 40 ms
Bit rate mode : Constant
Bit rate : 1 536 kb/s
Channel(s) : 2 channels
Channel layout : L R
Sampling rate : 48.0 kHz
Bit depth : 16 bits
Stream size : 5.50 MiB (10%)
Source stream size : 5.50 MiB (10%)
Language : Japanese
Encoded date : UTC 2019-04-14 13:57:15

1. Clouds : Olympus OM-D E-M10 FHD 30FPS




Clouds   FHD
  • Camera Olympus OM-D E-M10 A Mode 200iso

Complete name : PHOTO\OLYMPUS\OM-D E-M10\video\P4140966.MOV
Format : MPEG-4
Format profile : QuickTime
Codec ID : qt 2011.07 (qt )
File size : 36.4 MiB
Duration : 30 s 30 ms
Overall bit rate : 10.2 Mb/s
Encoded date : UTC 2019-04-14 14:00:49
Tagged date : UTC 2019-04-14 14:00:49
TAGS : 8"R

Video
ID : 1
Format : AVC
Format/Info : Advanced Video Codec
Format profile : High@L4.1
Format settings : 2 Ref Frames
Format settings, CABAC : No
Format settings, Reference frames : 2 frames
Format settings, GOP : M=3, N=8
Codec ID : avc1
Codec ID/Info : Advanced Video Coding
Duration : 30 s 30 ms
Bit rate : 8 387 kb/s
Width : 1 920 pixels
Height : 1 080 pixels
Display aspect ratio : 16:9
Frame rate mode : Constant
Frame rate : 29.970 (30000/1001) FPS
Color space : YUV
Chroma subsampling : 4:2:0
Bit depth : 8 bits
Scan type : Progressive
Bits/(Pixel*Frame) : 0.135
Stream size : 30.0 MiB (82%)
Language : Japanese
Encoded date : UTC 2019-04-14 14:00:49
Tagged date : UTC 2019-04-14 14:00:49
Color range : Full
Color primaries : BT.601 NTSC
Transfer characteristics : BT.601
Matrix coefficients : BT.601
Menus : 0
Codec configuration box : avcC

Audio
ID : 2
Format : PCM
Format settings : Little / Signed
Codec ID : sowt
Duration : 30 s 30 ms
Source duration : 30 s 40 ms
Bit rate mode : Constant
Bit rate : 1 536 kb/s
Channel(s) : 2 channels
Channel layout : L R
Sampling rate : 48.0 kHz
Bit depth : 16 bits
Stream size : 5.50 MiB (15%)
Source stream size : 5.50 MiB (15%)
Language : Japanese
Encoded date : UTC 2019-04-14 14:00:49

Clouds : Fujfilm X-A1 with OLYMPUS OM-SYSTEM ZUIKO MC AUTO-S 1:1,8 F=50mm




Clouds
Camera : Fujfilm X-A1
Lens : OLYMPUS OM-SYSTEM ZUIKO MC AUTO-S 1:1.8 F=50mm @1.8
Clouds  Fujfilm X-A1 adapted OM Olympus

Complete name : FUJIFILM\X-A1\Video\DSCF9875.MOV
Format : MPEG-4
Format profile : QuickTime
Codec ID : qt 0000.00 (qt )
File size : 118 MiB
Duration : 30 s 30 ms
Overall bit rate : 32.9 Mb/s
Movie_More : FUJIFILM DIGITAL CAMERA X-A1
Encoded date : UTC 2019-05-07 18:04:02
Tagged date : UTC 2019-05-07 18:04:02
Origin : Digital Camera

Video
ID : 1
Format : AVC
Format/Info : Advanced Video Codec
Format profile : High@L4.1
Format settings : 1 Ref Frames
Format settings, CABAC : No
Format settings, Reference frames : 1 frame
Format settings, GOP : M=1, N=15
Codec ID : avc1
Codec ID/Info : Advanced Video Coding
Duration : 30 s 30 ms
Bit rate : 31.1 Mb/s
Width : 1 920 pixels
Height : 1 080 pixels
Display aspect ratio : 16:9
Frame rate mode : Constant
Frame rate : 29.970 (30000/1001) FPS
Color space : YUV
Chroma subsampling : 4:2:0
Bit depth : 8 bits
Scan type : Progressive
Bits/(Pixel*Frame) : 0.500
Stream size : 111 MiB (95%)
Language : English
Encoded date : UTC 2019-05-07 18:04:02
Tagged date : UTC 2019-05-07 18:04:02
Codec configuration box : avcC

Audio
ID : 2
Format : PCM
Format settings : Little / Signed
Codec ID : sowt
Duration : 30 s 30 ms
Bit rate mode : Constant
Bit rate : 1 536 kb/s
Channel(s) : 2 channels
Channel layout : L R
Sampling rate : 48.0 kHz
Bit depth : 16 bits
Stream size : 2.75 MiB (2%)
Language : English
Encoded date : UTC 2019-05-07 18:04:02

2. Municipal Theater of Larissa : Fujfilm X-A1 with OLYMPUS OM-SYSTEM ZUIKO MC AUTO-S 1:1,8 F=50mm




Municipal Theater of Larissa
Camera : Fujfilm X-A1
Lens : OLYMPUS OM-SYSTEM ZUIKO MC AUTO-S 1:1.8 F=50mm @1.8
Fujfilm X-A1 adapted OM Olympus

Complete name : FUJIFILM\X-A1\Video\DSCF0113.MOV
Format : MPEG-4
Format profile : QuickTime
Codec ID : qt 0000.00 (qt )
File size : 228 MiB
Duration : 50 s 50 ms
Overall bit rate : 38.3 Mb/s
Movie_More : FUJIFILM DIGITAL CAMERA X-A1
Encoded date : UTC 2019-05-09 20:21:10
Tagged date : UTC 2019-05-09 20:21:10
Origin : Digital Camera

Video
ID : 1
Format : AVC
Format/Info : Advanced Video Codec
Format profile : High@L4.1
Format settings : 1 Ref Frames
Format settings, CABAC : No
Format settings, Reference frames : 1 frame
Format settings, GOP : M=1, N=15
Codec ID : avc1
Codec ID/Info : Advanced Video Coding
Duration : 50 s 50 ms
Bit rate : 36.6 Mb/s
Width : 1 920 pixels
Height : 1 080 pixels
Display aspect ratio : 16:9
Frame rate mode : Constant
Frame rate : 29.970 (30000/1001) FPS
Color space : YUV
Chroma subsampling : 4:2:0
Bit depth : 8 bits
Scan type : Progressive
Bits/(Pixel*Frame) : 0.589
Stream size : 218 MiB (96%)
Language : English
Encoded date : UTC 2019-05-09 20:21:10
Tagged date : UTC 2019-05-09 20:21:10
Codec configuration box : avcC

Audio
ID : 2
Format : PCM
Format settings : Little / Signed
Codec ID : sowt
Duration : 50 s 50 ms
Bit rate mode : Constant
Bit rate : 1 536 kb/s
Channel(s) : 2 channels
Channel layout : L R
Sampling rate : 48.0 kHz
Bit depth : 16 bits
Stream size : 4.58 MiB (2%)
Language : English
Encoded date : UTC 2019-05-09 20:21:10


1. Municipal Theater of Larissa : Fujfilm X-A1 with OLYMPUS OM-SYSTEM ZUIKO MC AUTO-S 1:1,8 F=50mm



Municipal Theater of Larissa
Camera : Fujfilm X-A1
Lens : OLYMPUS OM-SYSTEM ZUIKO MC AUTO-S 1:1.8 F=50mm @1.8
Fujfilm X-A1 adapted OM Olympus

Complete name : FUJIFILM\X-A1\Video\DSCF0112.MOV
Format : MPEG-4
Format profile : QuickTime
Codec ID : qt 0000.00 (qt )
File size : 151 MiB
Duration : 41 s 41 ms
Overall bit rate : 30.8 Mb/s
Movie_More : FUJIFILM DIGITAL CAMERA X-A1
Encoded date : UTC 2019-05-09 20:19:54
Tagged date : UTC 2019-05-09 20:19:54
Origin : Digital Camera

Video
ID : 1
Format : AVC
Format/Info : Advanced Video Codec
Format profile : High@L4.1
Format settings : 1 Ref Frames
Format settings, CABAC : No
Format settings, Reference frames : 1 frame
Format settings, GOP : M=1, N=15
Codec ID : avc1
Codec ID/Info : Advanced Video Coding
Duration : 41 s 41 ms
Bit rate : 29.0 Mb/s
Width : 1 920 pixels
Height : 1 080 pixels
Display aspect ratio : 16:9
Frame rate mode : Constant
Frame rate : 29.970 (30000/1001) FPS
Color space : YUV
Chroma subsampling : 4:2:0
Bit depth : 8 bits
Scan type : Progressive
Bits/(Pixel*Frame) : 0.467
Stream size : 142 MiB (94%)
Language : English
Encoded date : UTC 2019-05-09 20:19:54
Tagged date : UTC 2019-05-09 20:19:54
Codec configuration box : avcC

Audio
ID : 2
Format : PCM
Format settings : Little / Signed
Codec ID : sowt
Duration : 41 s 41 ms
Bit rate mode : Constant
Bit rate : 1 536 kb/s
Channel(s) : 2 channels
Channel layout : L R
Sampling rate : 48.0 kHz
Bit depth : 16 bits
Stream size : 3.76 MiB (2%)
Language : English
Encoded date : UTC 2019-05-09 20:19:54


Cafe at Municipal Theater Fujfilm X-A1 with OLYMPUS OM-SYSTEM ZUIKO MC AUTO-S 1:1,8 F=50mm




Cafe at Municipal Theater Larissa
Camera : Fujfilm X-A1
Lens : OLYMPUS OM-SYSTEM ZUIKO MC AUTO-S 1:1.8 F=50mm @1.8
Fujfilm X-A1 adapted OM Olympus

Complete name : F:\PHOTO\FUJIFILM\X-A1\Video\DSCF0116.MOV
Format : MPEG-4
Format profile : QuickTime
Codec ID : qt 0000.00 (qt )
File size : 318 MiB
Duration : 1 min 11 s
Overall bit rate : 37.5 Mb/s
Movie_More : FUJIFILM DIGITAL CAMERA X-A1
Encoded date : UTC 2019-05-09 20:23:20
Tagged date : UTC 2019-05-09 20:23:20
Origin : Digital Camera


Video
ID : 1
Format : AVC
Format/Info : Advanced Video Codec
Format profile : High@L4.1
Format settings : 1 Ref Frames
Format settings, CABAC : No
Format settings, Reference frames : 1 frame
Format settings, GOP : M=1, N=15
Codec ID : avc1
Codec ID/Info : Advanced Video Coding
Duration : 1 min 11 s
Bit rate : 35.9 Mb/s
Width : 1 920 pixels
Height : 1 080 pixels
Display aspect ratio : 16:9
Frame rate mode : Constant
Frame rate : 29.970 (30000/1001) FPS
Color space : YUV
Chroma subsampling : 4:2:0
Bit depth : 8 bits
Scan type : Progressive
Bits/(Pixel*Frame) : 0.577
Stream size : 304 MiB (96%)
Language : English
Encoded date : UTC 2019-05-09 20:23:20
Tagged date : UTC 2019-05-09 20:23:20
Codec configuration box : avcC

Audio
ID : 2
Format : PCM
Format settings : Little / Signed
Codec ID : sowt
Duration : 1 min 11 s
Bit rate mode : Constant
Bit rate : 1 536 kb/s
Channel(s) : 2 channels
Channel layout : L R
Sampling rate : 48.0 kHz
Bit depth : 16 bits
Stream size : 6.51 MiB (2%)
Language : English
Encoded date : UTC 2019-05-09 20:23:20

2 Depth of field test f/1.4 to F/16 OLYMPUS OM-D E-M10 withCanon FL 50mm f/1.4 FHD 30fps




2 Depth of field test
OLYMPUS\OM-D E-M10 FHD 30fps 
Depth of field test Canon FL 50mm f/1.4  from f/1.4  to F/16
Video Test


Complete name : F:\PHOTO\OLYMPUS\OM-D E-M10\video\PA060073.MOV
Format : MPEG-4
Format profile : QuickTime
Codec ID : qt 2011.07 (qt )
File size : 70.2 MiB
Duration : 30 s 30 ms
Overall bit rate : 19.6 Mb/s
Encoded date : UTC 2019-10-06 13:49:06
Tagged date : UTC 2019-10-06 13:49:06
TAGS : 8"R

Video
ID : 1
Format : AVC
Format/Info : Advanced Video Codec
Format profile : High@L4.1
Format settings : 2 Ref Frames
Format settings, CABAC : No
Format settings, Reference frames : 2 frames
Format settings, GOP : M=3, N=8
Codec ID : avc1
Codec ID/Info : Advanced Video Coding
Duration : 30 s 30 ms
Bit rate : 17.8 Mb/s
Width : 1 920 pixels
Height : 1 080 pixels
Display aspect ratio : 16:9
Frame rate mode : Constant
Frame rate : 29.970 (30000/1001) FPS
Color space : YUV
Chroma subsampling : 4:2:0
Bit depth : 8 bits
Scan type : Progressive
Bits/(Pixel*Frame) : 0.287
Stream size : 63.8 MiB (91%)
Language : Japanese
Encoded date : UTC 2019-10-06 13:49:06
Tagged date : UTC 2019-10-06 13:49:06
Color range : Full
Color primaries : BT.601 NTSC
Transfer characteristics : BT.601
Matrix coefficients : BT.601
Menus : 0
Codec configuration box : avcC

Audio
ID : 2
Format : PCM
Format settings : Little / Signed
Codec ID : sowt
Duration : 30 s 30 ms
Source duration : 30 s 40 ms
Bit rate mode : Constant
Bit rate : 1 536 kb/s
Channel(s) : 2 channels
Channel layout : L R
Sampling rate : 48.0 kHz
Bit depth : 16 bits
Stream size : 5.50 MiB (8%)
Source stream size : 5.50 MiB (8%)
Language : Japanese
Encoded date : UTC 2019-10-06 13:49:06


1 Depth of field test f/1.4 to F/16 OLYMPUS OM-D E-M10 with Canon FL 50mm f/1.4 FHD 30fps




1 Depth of field test
OLYMPUS\OM-D E-M10 FHD 30fps 
Depth of field test Canon FL 50mm f/1.4  from f/1.4  to F/16
Video Test

OLYMPUS OM-D E-M10 with Canon FL 50mm f/1.4
OLYMPUS OM-D E-M10 with Canon FL 50mm f/1.4



 f/1.4 Canon FL 50mm f/1.4
 f/1.4 Canon FL 50mm f/1.4

f/2 Canon FL 50mm f/1.4
f/2 Canon FL 50mm f/1.4

f/2.8 Canon FL 50mm f/1.4
f/2.8 Canon FL 50mm f/1.4

f/4 Canon FL 50mm f/1.4
f/4 Canon FL 50mm f/1.4

 f/5.6 Canon FL 50mm f/1.4
 f/5.6 Canon FL 50mm f/1.4

 f/8 Canon FL 50mm f/1.4
 f/8 Canon FL 50mm f/1.4

f/11 Canon FL 50mm f/1.4
f/11Canon FL 50mm f/1.4

 f/16 Canon FL 50mm f/1.4
 f/16 Canon FL 50mm f/1.4

Complete name : OLYMPUS\OM-D E-M10\video\PA060075.MOV
Format : MPEG-4
Format profile : QuickTime
Codec ID : qt 2011.07 (qt )
File size : 39.7 MiB
Duration : 27 s 528 ms
Overall bit rate : 12.1 Mb/s
Encoded date : UTC 2019-10-06 13:51:14
Tagged date : UTC 2019-10-06 13:51:14
TAGS : 8"R

Video
ID : 1
Format : AVC
Format/Info : Advanced Video Codec
Format profile : High@L4.1
Format settings : 2 Ref Frames
Format settings, CABAC : No
Format settings, Reference frames : 2 frames
Format settings, GOP : M=3, N=8
Codec ID : avc1
Codec ID/Info : Advanced Video Coding
Duration : 27 s 528 ms
Bit rate : 10.3 Mb/s
Width : 1 920 pixels
Height : 1 080 pixels
Display aspect ratio : 16:9
Frame rate mode : Constant
Frame rate : 29.970 (30000/1001) FPS
Color space : YUV
Chroma subsampling : 4:2:0
Bit depth : 8 bits
Scan type : Progressive
Bits/(Pixel*Frame) : 0.166
Stream size : 33.8 MiB (85%)
Language : Japanese
Encoded date : UTC 2019-10-06 13:51:14
Tagged date : UTC 2019-10-06 13:51:14
Color range : Full
Color primaries : BT.601 NTSC
Transfer characteristics : BT.601
Matrix coefficients : BT.601
Menus : 0
Codec configuration box : avcC

Audio
ID : 2
Format : PCM
Format settings : Little / Signed
Codec ID : sowt
Duration : 27 s 528 ms
Source duration : 27 s 560 ms
Bit rate mode : Constant
Bit rate : 1 536 kb/s
Channel(s) : 2 channels
Channel layout : L R
Sampling rate : 48.0 kHz
Bit depth : 16 bits
Stream size : 5.04 MiB (13%)
Source stream size : 5.05 MiB (13%)
Language : Japanese
Encoded date : UTC 2019-10-06 13:51:14

Half Moon : SIGMA DL ZOOM 75-300mm f/4--5.6 55mm + Olympus OM-D E-M10 FHD 30FPS



Half Moon FHD
Camera Olympus OM-D E-M10
 M Mode 200 iso
Lens SIGMA DL ZOOM 75-300mm  f/4--5.6  55m  @ f/8
 OLYMPUS OM to EOS to M4/3
with Crop Sensorc ois On

Complete name : DCIM\100OLYMP\PA060003.MOV
Format : MPEG-4
Format profile : QuickTime
Codec ID : qt 2011.07 (qt )
File size : 303 MiB
Duration : 3 min 53 s
Overall bit rate : 10.9 Mb/s
Encoded date : UTC 2019-10-06 20:05:47
Tagged date : UTC 2019-10-06 20:05:47
TAGS : 8"R

Video
ID : 1
Format : AVC
Format/Info : Advanced Video Codec
Format profile : High@L4.1
Format settings : 2 Ref Frames
Format settings, CABAC : No
Format settings, RefFrames : 2 frames
Format settings, GOP : M=3, N=8
Codec ID : avc1
Codec ID/Info : Advanced Video Coding
Duration : 3 min 53 s
Bit rate : 9 295 kb/s
Width : 1 920 pixels
Height : 1 080 pixels
Display aspect ratio : 16:9
Frame rate mode : Constant
Frame rate : 29.970 (30000/1001) FPS
Color space : YUV
Chroma subsampling : 4:2:0
Bit depth : 8 bits
Scan type : Progressive
Bits/(Pixel*Frame) : 0.150
Stream size : 259 MiB (86%)
Language : Japanese
Encoded date : UTC 2019-10-06 20:05:47
Tagged date : UTC 2019-10-06 20:05:47
Color range : Full
Color primaries : BT.601 NTSC
Transfer characteristics : BT.601
Matrix coefficients : BT.601
Menus : 0
Codec configuration box : avcC

Audio
ID : 2
Format : PCM
Format settings : Little / Signed
Codec ID : sowt
Duration : 3 min 53 s
Source duration : 3 min 53 s
Bit rate mode : Constant
Bit rate : 1 536 kb/s
Channel(s) : 2 channels
Channel layout : L R
Sampling rate : 48.0 kHz
Bit depth : 16 bits
Stream size : 42.8 MiB (14%)
Source stream size : 42.8 MiB (14%)
Language : Japanese
Encoded date : UTC 2019-10-06 20:05:47

   

Half Moon : SIGMA ZOOM λ II f/4.5-5.6 75-300mm 55mm + Olympus OM-D E-M10 FHD 30FPS



Half Moon FHD
Camera Olympus OM-D E-M10
 M Mode 200 iso
Lens SIGMA ZOOM λ II  f/4.5-5. 75-300mm 55mm  @ f/8
    OLYMPUS OM to EOS to M4/3
with Crop Sensorc ois ON

Complete name : DCIM\100OLYMP\PA060002.MOV
Format : MPEG-4
Format profile : QuickTime
Codec ID : qt 2011.07 (qt )
File size : 358 MiB
Duration : 3 min 58 s
Overall bit rate : 12.6 Mb/s
Encoded date : UTC 2019-10-06 19:58:23
Tagged date : UTC 2019-10-06 19:58:23
TAGS : 8"R

Video
ID : 1
Format : AVC
Format/Info : Advanced Video Codec
Format profile : High@L4.1
Format settings : 2 Ref Frames
Format settings, CABAC : No
Format settings, RefFrames : 2 frames
Format settings, GOP : M=3, N=8
Codec ID : avc1
Codec ID/Info : Advanced Video Coding
Duration : 3 min 58 s
Bit rate : 11.0 Mb/s
Width : 1 920 pixels
Height : 1 080 pixels
Display aspect ratio : 16:9
Frame rate mode : Constant
Frame rate : 29.970 (30000/1001) FPS
Color space : YUV
Chroma subsampling : 4:2:0
Bit depth : 8 bits
Scan type : Progressive
Bits/(Pixel*Frame) : 0.177
Stream size : 313 MiB (88%)
Language : Japanese
Encoded date : UTC 2019-10-06 19:58:23
Tagged date : UTC 2019-10-06 19:58:23
Color range : Full
Color primaries : BT.601 NTSC
Transfer characteristics : BT.601
Matrix coefficients : BT.601
Menus : 0
Codec configuration box : avcC

Audio
ID : 2
Format : PCM
Format settings : Little / Signed
Codec ID : sowt
Duration : 3 min 58 s
Source duration : 3 min 58 s
Bit rate mode : Constant
Bit rate : 1 536 kb/s
Channel(s) : 2 channels
Channel layout : L R
Sampling rate : 48.0 kHz
Bit depth : 16 bits
Stream size : 43.6 MiB (12%)
Source stream size : 43.6 MiB (12%)
Language : Japanese
Encoded date : UTC 2019-10-06 19:58:23

SIGMA ZOOM λ II 75-300mm
SIGMA 75-300mm  f/4.5-5.6

Full moon Olympus OM-D E-M10 Crop Sensor - PARAGON f/8 500mm f72 T2




Full moon 14/9/2019
Camera : Olympus OM-D E-M10 in manual , shutter 1/1000, iso 200. Crop Sensor
Lens: PARAGON f/8 500mm f72 T2 - @ f/11
video  test #002 1920 1080 30p
1:8 f= 500mm




Complete name : DCIM\105OLYMP\P9140511.MOV
Format : MPEG-4
Format profile : QuickTime
Codec ID : qt 2011.07 (qt )
File size : 524 MiB
Duration : 3 min 40 s
Overall bit rate : 19.9 Mb/s
Encoded date : UTC 2019-09-14 01:31:48
Tagged date : UTC 2019-09-14 01:31:48
TAGS : 8"R

Video
ID : 1
Format : AVC
Format/Info : Advanced Video Codec
Format profile : High@L4.1
Format settings : 2 Ref Frames
Format settings, CABAC : No
Format settings, Reference frames : 2 frames
Format settings, GOP : M=3, N=8
Codec ID : avc1
Codec ID/Info : Advanced Video Coding
Duration : 3 min 40 s
Bit rate : 18.3 Mb/s
Width : 1 920 pixels
Height : 1 080 pixels
Display aspect ratio : 16:9
Frame rate mode : Constant
Frame rate : 29.970 (30000/1001) FPS
Color space : YUV
Chroma subsampling : 4:2:0
Bit depth : 8 bits
Scan type : Progressive
Bits/(Pixel*Frame) : 0.295
Stream size : 483 MiB (92%)
Language : Japanese
Encoded date : UTC 2019-09-14 01:31:48
Tagged date : UTC 2019-09-14 01:31:48
Color range : Full
Color primaries : BT.601 NTSC
Transfer characteristics : BT.601
Matrix coefficients : BT.601
Menus : 0
Codec configuration box : avcC

Audio
ID : 2
Format : PCM
Format settings : Little / Signed
Codec ID : sowt
Duration : 3 min 40 s
Source duration : 3 min 40 s
Bit rate mode : Constant
Bit rate : 1 536 kb/s
Channel(s) : 2 channels
Channel layout : L R
Sampling rate : 48.0 kHz
Bit depth : 16 bits
Stream size : 40.4 MiB (8%)
Source stream size : 40.4 MiB (8%)
Language : Japanese
Encoded date : UTC 2019-09-14 01:31:48

Full moon Olympus OM-D E-M10 - PARAGON f/8 500mm f72 T2



Full moon 14/9/2019
Camera : Olympus OM-D E-M10 in manual , shutter 1/100, iso 250.
Lens: PARAGON f/8 500mm f72 T2 - @ f/11
video  test #002 1920 1080 30p
1:8 f= 500mm


Complete name : DCIM\105OLYMP\P9140470.MOV
Format : MPEG-4
Format profile : QuickTime
Codec ID : qt 2011.07 (qt )
File size : 766 MiB
Duration : 9 min 36 s
Overall bit rate : 11.2 Mb/s
Encoded date : UTC 2019-09-14 01:05:44

TAGS : 8"R

Video
ID : 1
Format : AVC
Format/Info : Advanced Video Codec
Format profile : High@L4.1
Format settings : 2 Ref Frames
Format settings, CABAC : No
Format settings, Reference frames : 2 frames
Format settings, GOP : M=3, N=8
Codec ID : avc1
Codec ID/Info : Advanced Video Coding
Duration : 9 min 36 s
Bit rate : 9 610 kb/s
Width : 1 920 pixels
Height : 1 080 pixels
Display aspect ratio : 16:9
Frame rate mode : Constant
Frame rate : 29.970 (30000/1001) FPS
Color space : YUV
Chroma subsampling : 4:2:0
Bit depth : 8 bits
Scan type : Progressive
Bits/(Pixel*Frame) : 0.155
Stream size : 660 MiB (86%)
Language : Japanese
Encoded date : UTC 2019-09-14 01:05:44
Tagged date : UTC 2019-09-14 01:05:44
Color range : Full
Color primaries : BT.601 NTSC
Transfer characteristics : BT.601
Matrix coefficients : BT.601
Menus : 0
Codec configuration box : avcC

Audio
ID : 2
Format : PCM
Format settings : Little / Signed
Codec ID : sowt
Duration : 9 min 36 s
Source duration : 9 min 36 s
Bit rate mode : Constant
Bit rate : 1 536 kb/s
Channel(s) : 2 channels
Channel layout : L R
Sampling rate : 48.0 kHz
Bit depth : 16 bits
Stream size : 105 MiB (14%)
Source stream size : 105 MiB (14%)
Language : Japanese
Encoded date : UTC 2019-09-14 01:05:44

3ο Πανσέληνος 15 Αυγούστου 2019 Aug Full moon



Πανσέληνος 15 Αυγούστου 2019  3ο  video
Full moon
Camera Olympus OM-D E-M10
 ISO 200 f5,6 Zoom Crop Sensor
Lens Panasonic Lumix H-FS1410 M4/3 14-140MM POWER O.I,S. ΟΝ

2ο Πανσέληνος 15 Αυγούστου 2019 Aug Full Monn



Πανσέληνος 15 Αυγούστου 2019  2ο  video
Full Monn
Camera Olympus OM-D E-M10
 ISO 200 f5,6 Zoom Crop Sensor
Lens Panasonic Lumix H-FS1410 M4/3 14-140MM POWER O.I,S. ΟΝ

1ο Πανσέληνος 15 Αυγούστου 2019 Full moon



Πανσέληνος 15 Αυγούστου 2019  1ο  video
Camera Olympus OM-D E-M10
 ISO 200 f5,6 Zoom Crop Sensor
Lens Panasonic Lumix H-FS1410 M4/3 14-140MM POWER O.I,S. ΟΝ

Half Moon : Olympus OM-D E-M10 + Lumix H-FS1410 FHD 30FPS



Half Moon FHD
Camera Olympus OM-D E-M10 A Mode 200iso
Lens Panasonic Lumix H-FS1410 M4/3 14-140MM  @ 140mm with Crop Sensorc lens ois ON
POWER O.I,S. OFF

Complete name : E:\DCIM\152OLYMP\P5120053.MOV
Format : MPEG-4
Format profile : QuickTime
Codec ID : qt 2011.07 (qt )
File size : 60.1 MiB
Duration : 1 min 1 s
Overall bit rate : 8 256 kb/s
Encoded date : UTC 2019-05-12 00:39:44
Tagged date : UTC 2019-05-12 00:39:44
TAGS : 8"R

Video
ID : 1
Format : AVC
Format/Info : Advanced Video Codec
Format profile : High@L4.1
Format settings : 2 Ref Frames
Format settings, CABAC : No
Format settings, Reference frames : 2 frames
Format settings, GOP : M=3, N=8
Codec ID : avc1
Codec ID/Info : Advanced Video Coding
Duration : 1 min 1 s
Bit rate : 6 599 kb/s
Width : 1 920 pixels
Height : 1 080 pixels
Display aspect ratio : 16:9
Frame rate mode : Constant
Frame rate : 29.970 (30000/1001) FPS
Color space : YUV
Chroma subsampling : 4:2:0
Bit depth : 8 bits
Scan type : Progressive
Bits/(Pixel*Frame) : 0.106
Stream size : 48.0 MiB (80%)
Language : Japanese
Encoded date : UTC 2019-05-12 00:39:44
Tagged date : UTC 2019-05-12 00:39:44
Color range : Full
Color primaries : BT.601 NTSC
Transfer characteristics : BT.601
Matrix coefficients : BT.601
Menus : 0
Codec configuration box : avcC

Audio
ID : 2
Format : PCM
Format settings : Little / Signed
Codec ID : sowt
Duration : 1 min 1 s
Source duration : 1 min 1 s
Bit rate mode : Constant
Bit rate : 1 536 kb/s
Channel(s) : 2 channels
Channel layout : L R
Sampling rate : 48.0 kHz
Bit depth : 16 bits
Stream size : 11.2 MiB (19%)
Source stream size : 11.2 MiB (19%)
Language : Japanese
Encoded date : UTC 2019-05-12 00:39:44

Clouds : Olympus OM-D E-M10 + Lumix H-FS1410 FHD 30FPS



Clouds   FHD
Camera Olympus OM-D E-M10 A Mode 200iso
Lens Panasonic Lumix H-FS1410 M4/3 14-140MM  lens ois ON
POWER O.I,S. OFF

Complete name : DCIM\152OLYMP\P5120114.MOV
Format : MPEG-4
Format profile : QuickTime
Codec ID : qt 2011.07 (qt )
File size : 82.1 MiB
Duration : 1 min 1 s
Overall bit rate : 11.3 Mb/s
Encoded date : UTC 2019-05-12 14:53:39
Tagged date : UTC 2019-05-12 14:53:39
TAGS : 8"R

Video
ID : 1
Format : AVC
Format/Info : Advanced Video Codec
Format profile : High@L4.1
Format settings : 2 Ref Frames
Format settings, CABAC : No
Format settings, Reference frames : 2 frames
Format settings, GOP : M=3, N=8
Codec ID : avc1
Codec ID/Info : Advanced Video Coding
Duration : 1 min 1 s
Bit rate : 9 616 kb/s
Width : 1 920 pixels
Height : 1 080 pixels
Display aspect ratio : 16:9
Frame rate mode : Constant
Frame rate : 29.970 (30000/1001) FPS
Color space : YUV
Chroma subsampling : 4:2:0
Bit depth : 8 bits
Scan type : Progressive
Bits/(Pixel*Frame) : 0.155
Stream size : 70.0 MiB (85%)
Language : Japanese
Encoded date : UTC 2019-05-12 14:53:39
Tagged date : UTC 2019-05-12 14:53:39
Color range : Full
Color primaries : BT.601 NTSC
Transfer characteristics : BT.601
Matrix coefficients : BT.601
Menus : 0
Codec configuration box : avcC

Audio
ID : 2
Format : PCM
Format settings : Little / Signed
Codec ID : sowt
Duration : 1 min 1 s
Source duration : 1 min 1 s
Bit rate mode : Constant
Bit rate : 1 536 kb/s
Channel(s) : 2 channels
Channel layout : L R
Sampling rate : 48.0 kHz
Bit depth : 16 bits
Stream size : 11.2 MiB (14%)
Source stream size : 11.2 MiB (14%)
Language : Japanese
Encoded date : UTC 2019-05-12 14:53:39

Popular Posts