Showing posts with label Helios-44M-7 58mm f/2 Ø52. Show all posts
Showing posts with label Helios-44M-7 58mm f/2 Ø52. Show all posts

Sunset birds Olympus PEN E-PL3 with Helios-44M-7 58mm f/2 Ø52 M42 to m4/3 @ f/4




Sunset birds Camera : Olympus PEN E-PL3 in mode A auto iso 400-800 limit stabilazer IS off is defective one motor focus to the clouds Lens: Helios-44M-7 58mm f/2 Ø52 M42 - @ f/4 video test 1920 1080 30p Don’t forget to click the bell to turn on post notifications! Nikolaos Instagram: https://www.instagram.com/sakellarisnikolaos/ Twitter: https://twitter.com/SakellarisNiko Facebook: https://www.facebook.com/nikolaos.sakellaris/ Blog: https://video-photo-blog.blogspot.com/ 1:2 f= 58mm with monopod K&F Concept from KF2624L tripod KF09.050 (1st time used) Complete name : AVCHD\BDMV\STREAM\00007.MTS Format : BDAV Format/Info : Blu-ray Video File size : 93.7 MiB Duration : 1 min 21 s Overall bit rate mode : Variable Overall bit rate : 9 618 kb/s Maximum Overall bit rate : 24.0 Mb/s Video ID : 4113 (0x1011) Menu ID : 1 (0x1) Format : AVC Format/Info : Advanced Video Codec Format profile : High@L4 Format settings : 2 Ref Frames Format settings, CABAC : No Format settings, Reference frames : 2 frames Format settings, GOP : M=1, N=15 Codec ID : 27 Duration : 1 min 21 s Bit rate mode : Variable Bit rate : 9 036 kb/s Maximum bit rate : 22.5 Mb/s Width : 1 920 pixels Height : 1 080 pixels Display aspect ratio : 16:9 Frame rate : 29.970 (30000/1001) FPS Color space : YUV Chroma subsampling : 4:2:0 Bit depth : 8 bits Scan type : Interlaced Scan type, store method : Separated fields Scan order : Top Field First Bits/(Pixel*Frame) : 0.145 Stream size : 87.9 MiB (94%) Audio ID : 4352 (0x1100) Menu ID : 1 (0x1) Format : AC-3 Format/Info : Audio Coding 3 Commercial name : Dolby Digital Codec ID : 129 Duration : 1 min 21 s Bit rate mode : Constant Bit rate : 192 kb/s Channel(s) : 2 channels Channel layout : L R Sampling rate : 48.0 kHz Frame rate : 31.250 FPS (1536 SPF) Compression mode : Lossy Stream size : 1.87 MiB (2%) Service kind : Complete Main

Genova città deserta Seconda parte rimaniamo a casa Μένουμε Σπίτι και εμείς

rimaniamo a casa Seconda parte Genova città deserta #StayHome Γένοβα δεύτερο μέρος Μένουμε Σπίτι και εμείς 2nd Part desert Genoa Geno...