Showing posts with label Nikon AI to Samsung NX. Show all posts
Showing posts with label Nikon AI to Samsung NX. Show all posts

@ f/4 Sunset Clouds : Samsung NX20 video test with ARSAT H 50mm 1:2 Nikon AI adapted to NX @ 24fps




Sunset Clouds Larissa Greece Camera : Samsung NX20 Crop factor 1.5 Lens : ARSAT H 50mm f/2 Ø52 Nikon AI @ f/4 75mm equivalent 35mm Mode : A ISO 400 EV 0,0 Video Stabilization No Video 1920x810 @ 24fps Complete name : Desktop\104PHOTO\SAM_4394.MP4 Format : MPEG-4 Format profile : Base Media / Version 2 Codec ID : mp42 (mp42/isom/avc1) File size : 89.6 MiB Duration : 1 min 16 s Overall bit rate : 9 815 kb/s Video ID : 1 Format : AVC Format/Info : Advanced Video Codec Format profile : High@L4.1 Format settings : 2 Ref Frames Format settings, CABAC : No Format settings, RefFrames : 2 frames Format settings, GOP : M=1, N=24 Codec ID : avc1 Codec ID/Info : Advanced Video Coding Duration : 1 min 16 s Bit rate : 9 714 kb/s Width : 1 920 pixels Height : 810 pixels Display aspect ratio : 2.40:1 Frame rate mode : Constant Frame rate : 24.000 FPS Color space : YUV Chroma subsampling : 4:2:0 Bit depth : 8 bits Scan type : Progressive Bits/(Pixel*Frame) : 0.260 Stream size : 88.3 MiB (99%) Language : English Codec configuration box : avcC Audio ID : 2 Format : AAC LC Format/Info : Advanced Audio Codec Low Complexity Codec ID : mp4a-40-2 Duration : 1 min 16 s Bit rate mode : Constant Bit rate : 128 kb/s Channel(s) : 2 channels Channel layout : L R Sampling rate : 32.0 kHz Frame rate : 31.250 FPS (1024 SPF) Compression mode : Lossy Stream size : 1.15 MiB (1%) Language : English

Genova città deserta Seconda parte rimaniamo a casa Μένουμε Σπίτι και εμείς

rimaniamo a casa Seconda parte Genova città deserta #StayHome Γένοβα δεύτερο μέρος Μένουμε Σπίτι και εμείς 2nd Part desert Genoa Geno...