Ηλιοβασίλεμα στον Πλαταμώνα Sanset Platamonas ( Sanyo Xacti VPC-CG100 ) Video



16 August 2018
Ηλιοβασίλεμα  στον Πλαταμώνα
Sunset Platamonas Greece
  • Sanyo Xacti VPC-CG100
  • Video test
  • Video Stabilazer ΟΝ
  • Exposure A Aperture - f/3.5 - Shuter auto ( 1/30 ~ 1/1000 )
  • Focus Auto -ISO 50

Complete name : SANYO\SANYO CG100\LEMOON\SANY0091.MP4
Format : MPEG-4
Format profile : Base Media / Version 2
Codec ID : mp42 (mp42/avc1)
File size : 30.6 MiB
Duration : 19 s 19 ms
Overall bit rate mode : Variable
Overall bit rate : 13.5 Mb/s
Movie_More : SANYO DIGITAL CAMERA CG100
Encoded date : UTC 2018-08-16 20:42:11
Tagged date : UTC 2018-08-16 20:42:11
Origin : Digital Camera
TAGS : O DIGITAL CAMERA

Video
ID : 1
Format : AVC
Format/Info : Advanced Video Codec
Format profile : Baseline@L4
Format settings : 2 Ref Frames
Format settings, CABAC : No
Format settings, Reference frames : 2 frames
Format settings, GOP : M=1, N=30
Codec ID : avc1
Codec ID/Info : Advanced Video Coding
Duration  19 s 19 ms
Bit rate : 12.4 Mb/s:
Width : 1 920 pixels
Height : 1 080 pixels
Display aspect ratio : 16:9
Frame rate mode : Constant
Frame rate : 29.970 (30000/1001) FPS
Color space : YUV
Chroma subsampling : 4:2:0
Bit depth : 8 bits
Scan type : Progressive
Bits/(Pixel*Frame) : 0.200
Stream size : 28.2 MiB (92%)
Language : English
Encoded date : UTC 2018-08-16 20:42:11

Color range : Full
Color primaries : BT.709
Transfer characteristics : BT.709
Matrix coefficients : BT.709
Codec configuration box : avcC

Audio
ID : 2
Format : AAC LC
Format/Info : Advanced Audio Codec Low Complexity
Codec ID : mp4a-40-2
Duration : 19 s 19 ms
Source duration : 19 s 200 ms
Bit rate mode : Variable
Bit rate : 256 kb/s
Maximum bit rate : 192 kb/s
Channel(s) : 2 channels
Channel layout : L R
Sampling rate : 48.0 kHz
Frame rate : 46.875 FPS (1024 SPF)
Compression mode : Lossy
Stream size : 591 KiB (2%)
Source stream size : 597 KiB (2%)
Language : English
Encoded date : UTC 2018-08-16 20:42:11

No comments:

Post a Comment

Genova città deserta Seconda parte rimaniamo a casa Μένουμε Σπίτι και εμείς

rimaniamo a casa Seconda parte Genova città deserta #StayHome Γένοβα δεύτερο μέρος Μένουμε Σπίτι και εμείς 2nd Part desert Genoa Geno...