Showing posts with label Bird. Show all posts
Showing posts with label Bird. Show all posts

Hand 40x Zoom - Dove Bird : JVC Everio GZ-HM200BE GZ-HM200BE #002 1080 25fps



Dove Bird
JVC Everio GZ-HM200BE
Hand 40x Zoom
video test #002 1080 25fps 24.0 Mb/s

Complete name : E:\PRIVATE\AVCHD\BDMV\STREAM\00013.MTS
Format : BDAV
Format/Info : Blu-ray Video
File size : 89.2 MiB
Duration : 31 s 614 ms
Overall bit rate mode : Variable
Overall bit rate : 23.7 Mb/s
Maximum Overall bit rate : 24.0 Mb/s
Recorded date : 2019-04-24 17:52:19+00:00
Writing application : JVC

Video
ID : 4113 (0x1011)
Menu ID : 1 (0x1)
Format : AVC
Format/Info : Advanced Video Codec
Format profile : High@L4
Format settings : 2 Ref Frames
Format settings, CABAC : No
Format settings, Reference frames : 2 frames
Format settings, GOP : M=2, N=12
Codec ID : 27
Duration : 31 s 640 ms
Bit rate mode : Variable
Bit rate : 22.6 Mb/s
Width : 1 920 pixels
Height : 1 080 pixels
Display aspect ratio : 16:9
Frame rate : 25.000 FPS
Color space : YUV
Chroma subsampling : 4:2:0
Bit depth : 8 bits
Scan type : Interlaced
Scan type, store method : Separated fields
Scan order : Top Field First
Bits/(Pixel*Frame) : 0.436
Stream size : 84.8 MiB (95%)

Audio
ID : 4352 (0x1100)
Menu ID : 1 (0x1)
Format : AC-3
Format/Info : Audio Coding 3
Commercial name : Dolby Digital
Codec ID : 129
Duration : 31 s 680 ms
Bit rate mode : Constant
Bit rate : 256 kb/s
Channel(s) : 2 channels
Channel layout : L R
Sampling rate : 48.0 kHz
Frame rate : 31.250 FPS (1536 SPF)
Bit depth : 16 bits
Compression mode : Lossy
Delay relative to video : -40 ms
Stream size : 990 KiB (1%)
Service kind : Complete Main

Text
ID : 4608 (0x1200)
Menu ID : 1 (0x1)
Format : PGS
Codec ID : 144
Duration : 31 s 175 ms
Delay relative to video : -40 ms

Genova città deserta Seconda parte rimaniamo a casa Μένουμε Σπίτι και εμείς

rimaniamo a casa Seconda parte Genova città deserta #StayHome Γένοβα δεύτερο μέρος Μένουμε Σπίτι και εμείς 2nd Part desert Genoa Geno...